Hello world!
Music by 源屋, Vocal by SOPHY

ADVANCED

Level: 6
BPM: 175
Notes: 393

1
口口口口 |----|
口口口口 |----|
口口口口 |----|
口口口口 |----|
2
口④③口 |①---|
⑤口口口 |②---|
口口②口 |③-④-|
口①①口 |--⑤-|
3
口口口口 |--①-|
口口口⑤ |②---|
口①②④ |--③-|
口口口③ |④-⑤-|
4
⑤口口① |①---|
口口口口 |②---|
④②②口 |③-④-|
③口口口 |--⑤-|
5
口①口口 |--①-|
口④口口 |--②-|
口口③口 |--③-|
口②口口 |--④-|
6
口④口口 |①-②-|
口口③口 |③-④-|
口②口口 |----|
口口①⑤ |--⑤-|
7
口口口口 |①---|
口③口① |②-③-|
口口口口 |----|
口②④口 |--④-|
8
口口⑥口 |①---|
②⑤①口 |②---|
口口④口 |③-④-|
口③口口 |⑤-⑥-|
9
口口⑥口 |--①-|
②⑤口口 |②-③-|
口口④口 |--④-|
①③口口 |⑤-⑥-|
10
④口口④ |①---|
口口③口 |②---|
口②口口 |③---|
口口①口 |④---|
11
口口①口 |①---|
口②口口 |②---|
口口③口 |③---|
④口口④ |④---|
12
④口口④ |①---|
口口③口 |②---|
口②口口 |③---|
口口①口 |④---|
13
口口口口 |①---|
③①口④ |②---|
口口②口 |③---|
④口口③ |④---|
14
④口口④ |①---|
口③口口 |②---|
口口②口 |③---|
口①口口 |④---|
15
口①口口 |①---|
口口②口 |②---|
口③口口 |③---|
④口口④ |④---|
16
④口口④ |①---|
口③口口 |②---|
口口②口 |③---|
口①口口 |④---|
17
口口口口 |①---|
③口①④ |②---|
口②口口 |③---|
④口口③ |④---|
18
口⑤⑥口 |①---|
口③④口 |②---|
口口口口 |③-④-|
口②①口 |⑤-⑥-|
19
口①口口 |----|
口口②口 |----|
口③口口 |--①-|
口口口口 |②-③-|
20
口口口口 |①---|
口③口⑤ |②-③-|
口口④口 |--④-|
口②①口 |--⑤-|
21
口②口① |--①-|
口口口口 |--②-|
口口口口 |----|
口口口口 |----|
22
口⑥⑤口 |①---|
口④③口 |②---|
口口口口 |③-④-|
口①②口 |⑤-⑥-|
23
口口口口 |--①-|
⑤口口口 |--②-|
④①①口 |--③-|
③②②口 |④-⑤-|
24
口③②口 |①---|
口①①口 |②-③-|
口口口口
口口口口

口口口口
口口⑥口
口⑤口口 |--④-|
口口④口 |⑤-⑥-|
25
口口口口 |----|
口口口口 |----|
口口口口 |----|
口口口口 |----|
26
口口口口 |①---|
⑥②②⑤ |②---|
口④③口 |③-④-|
口①①口 |⑤-⑥-|
27
口②②口 |----|
口①①③ |--①-|
口口口口 |--②-|
口口口口 |--③-|
28
口⑥口口 |①---|
①口⑤口 |②---|
②④②口 |③-④-|
口口③口 |⑤-⑥-|
29
口口口口 |----|
①口口① |①---|
②口口② |②---|
③口口③ |③---|
30
①口口① |①---|
口口口口 |----|
口口口口 |----|
口口口口 |----|
31
口口口口 |----|
口口口口 |--①-|
口口③口 |--②-|
口②①口 |--③-|
32
口⑥①口 |①---|
②口口⑤ |②---|
口④口口 |③-④-|
口口口③ |⑤-⑥-|
33
口口口口 |----|
口口口口 |----|
口口口口 |----|
口口口口 |----|
34
口④③口 |①---|
⑤口口口 |②---|
口口②口 |③-④-|
口①①口 |--⑤-|
35
口口口口 |--①-|
口口口⑤ |②---|
口①②④ |--③-|
口口口③ |④-⑤-|
36
⑤口口① |①---|
口口口口 |②---|
④②②口 |③-④-|
③口口口 |--⑤-|
37
口①口口 |--①-|
口④口口 |--②-|
口口③口 |--③-|
口②口口 |--④-|
38
口④口口 |①-②-|
口口③口 |③-④-|
口②口口 |----|
口口①⑤ |--⑤-|
39
口口口口 |①---|
口③口① |②-③-|
口口口口 |----|
口②④口 |--④-|
40
口口⑥口 |①---|
②⑤①口 |②---|
口口④口 |③-④-|
口③口口 |⑤-⑥-|
41
口口口口 |--①-|
②口③口 |②-③-|
口口口口 |----|
①口口口 |----|
42
口④③口 |①---|
⑤口口口 |②---|
口口②口 |③-④-|
口①①口 |--⑤-|
43
口口口口 |--①-|
口口口⑤ |②---|
口①②④ |--③-|
口口口③ |④-⑤-|
44
⑤口口① |①---|
口口口口 |②---|
④②②口 |③-④-|
③口口口 |--⑤-|
45
口①口口 |--①-|
口④口口 |--②-|
口口③口 |--③-|
口②口口 |--④-|
46
口④口口 |①-②-|
口口③口 |③-④-|
口②口口 |----|
口口①⑤ |--⑤-|
47
口口④③ |①-②-|
口口口② |③-④-|
口口口① |----|
口口⑤口 |--⑤-|
48
口口⑥口 |①---|
②⑤①口 |②---|
口口④口 |③-④-|
口③口口 |⑤-⑥-|
49
口口⑥口 |--①-|
②⑤口口 |②-③-|
口口④口 |--④-|
①③口口 |⑤-⑥-|
50
口①口① |①---|
口口口口 |----|
口口口口 |----|
口口口口 |----|
51
口口口口 |①---|
口①①口 |----|
口口口口 |----|
口口口口 |----|
52
口口口口 |①---|
口⑤口⑤ |②-③-|
①口②口 |--④-|
口③口④ |--⑤-|
53
口口口口 |----|
口口口口 |----|
口口口口 |----|
口口①口 |①---|
54
口口口口 |①---|
④②①口 |②-③-|
口③口口 |----|
口口口口 |④---|
55
口①②③ |①---|
口口口口 |--②-|
口口口口 |----|
口口口口 |③---|
56
口口口口 |①---|
口①①口 |----|
口口口口 |----|
口口口口 |----|
57
口口口口 |----|
口口口口 |----|
口口口口 |----|
口口口口 |----|
58
口口口口 |----|
③③口口 |①---|
口②口口 |②---|
口①口口 |③---|
59
口①④④ |①---|
口口③口 |②---|
口口②口 |③---|
口口口口 |④---|
60
口③④口 |①---|
口口口⑤ |②---|
口②口口 |③-④-|
口①①口 |--⑤-|
61
口口口口 |--①-|
⑤口口口 |②---|
④②①口 |--③-|
③口口口 |④-⑤-|
62
①口口⑤ |①---|
口口口口 |②---|
口②②④ |③-④-|
口口口③ |--⑤-|
63
口口①口 |--①-|
口口④口 |--②-|
口③口口 |--③-|
口口②口 |--④-|
64
口口④口 |①-②-|
口③口口 |③-④-|
口口②口 |----|
口①口口 |----|
65
口口口口 |①---|
①口③口 |②-③-|
口口口口 |----|
口④②口 |--④-|
66
口⑦口口 |①---|
口①⑥② |②-③-|
口⑤口③ |④-⑤-|
口口④口 |⑥-⑦-|
67
口口口口 |--①-|
口③口② |②-③-|
口口口口 |----|
口口口① |----|
68
口③④口 |①---|
口口口⑤ |②---|
口②口口 |③-④-|
口①①口 |--⑤-|
69
口口口口 |--①-|
⑤口口口 |②---|
④②①口 |--③-|
③口口口 |④-⑤-|
70
①口口⑤ |①---|
口口口口 |②---|
口②②④ |③-④-|
口口口③ |--⑤-|
71
口口①口 |--①-|
口口④口 |--②-|
口③口口 |--③-|
口口②口 |--④-|
72
口口④口 |①-②-|
口③口口 |③-④-|
口口②口 |----|
口①口口 |----|
73
口口口口 |①---|
①口③口 |②-③-|
口口口口 |----|
口④②口 |--④-|
74
口⑦口口 |①---|
口①⑥② |②-③-|
口⑤口③ |④-⑤-|
口口④口 |⑥-⑦-|
75
口⑥口口 |--①-|
口口⑤② |②-③-|
口④口口 |--④-|
口口③① |⑤-⑥-|
76
④口口④ |①---|
口③口口 |②---|
口口②口 |③---|
口①口口 |④---|
77
口①口口 |①---|
口口②口 |②---|
口③口口 |③---|
④口口④ |④---|
78
④口口④ |①---|
口③口口 |②---|
口口②口 |③---|
口①口口 |④---|
79
口口口口 |①---|
③口①④ |②---|
口②口口 |③---|
④口口③ |④---|
80
④口口④ |①---|
口口③口 |②---|
口②口口 |③---|
口口①口 |④---|
81
口口①口 |①---|
口②口口 |②---|
口口③口 |③---|
④口口④ |④---|
82
④口口④ |①---|
口口③口 |②---|
口②口口 |③---|
口口①口 |④---|
83
口口口口 |①---|
口①口口 |②---|
④口②④ |③---|
③口口③ |④---|
84
口口口口 |①---|
口①①口 |----|
口口口口 |----|
口口口口 |----|

不確定度: 0

最終更新:2014年08月01日 22:40