影縫い胤撒き
Akhuta

EXTREME

Level: 9
BPM: 180
Notes: 786

1
口口口口 |----|
口口口口 |----|
口口口口 |----|
口口口口
2
口④④口 |①--②|
③口口口 |--③-|
①②口口 |---④|
口口口口
3
口口口口 |----|
口口②口 |--①-|
口口口口 |-②--|
口口口①
4
口口口口 |①--②|
口口口① |--③-|
口口②③ |-④--|
口口④口
5
口口口口 |①---|
口①口口 |②---|
②口口口 |③---|
口③口口
6
口口口口 |----|
口口口口 |----|
口口口口 |----|
口口口口
7
口口口口 |----|
口口口口 |----|
口口口口 |----|
口口口口
8
⑤⑤①① |①-②③|
⑥②口口 |④-⑤-|
口口③口 |⑥---|
口④口口
9
口⑥⑥口 |①-②③|
口口②口 |④-⑤-|
①③口⑤ |⑥---|
①口④⑤
10
①口口① |①-②③|
⑥②③④ |④-⑤-|
口口口口 |⑥---|
口⑤⑤口
11
口口口⑤ |①--②|
口④③口 |--③④|
口①①② |⑤-⑥-|
⑥口口口
12
①①口口 |①-②③|
口⑥口② |④-⑤-|
③⑤口口 |⑥---|
口⑤口④
13
口口①① |①-②③|
②口⑥口 |④-⑤-|
口⑥⑤③ |⑥---|
④口⑤口
14
①①口口 |①-②③|
口⑥口② |④-⑤-|
③口⑧⑦ |⑥-⑦⑧|
⑤⑤口④
15
②③④⑤ |①-②③|
⑥口口⑤ |④-⑤-|
⑥①口口 |⑥-⑦-|
口口⑦⑦
16
口④⑤口 |①---|
口①①口 |②-③-|
口口③② |④-⑤-|
口口口口
17
④口口口 |①-②-|
口⑥口① |③-④-|
⑤③口口 |⑤-⑥-|
口口②口
18
口④③① |①---|
④口①口 |--②-|
④③②③ |③-④-|
口②口②
19
②口口⑤ |①--②|
口④③① |--③④|
口⑥口口 |⑤-⑥-|
①口①口
20
⑤①①口 |①-②-|
口⑥口口 |③-④-|
②口口口 |⑤-⑥-|
④③口口
21
口口⑤口 |①-②-|
口口①④ |③-④-|
口口⑥② |⑤-⑥-|
口口③口
22
①③④③ |①---|
①口口④ |--②-|
④③口② |③-④-|
口②口②
23
②口口口 |①--②|
口①口口 |--③④|
口口①⑤ |⑤---|
①④③口
24
口④⑤口 |①---|
①③口① |②-③-|
②口口口 |④-⑤-|
口口口口
25
口⑥口口 |①-②-|
口口⑤口 |③-④-|
口④②① |⑤-⑥-|
口③口口
26
①口②口 |①---|
口①口② |----|
③口②③ |②-③-|
口③①口
27
②口口② |①---|
口口①口 |----|
口①口口 |②---|
口口口①
28
口口④口 |①-②-|
口⑥口① |③-④-|
口⑤②口 |⑤-⑥-|
口口口③
29
口③⑤口 |①-②-|
口口口口 |③-④-|
②口④口 |⑤---|
①口口口
30
③口口① |①---|
①③①③ |②---|
口②口② |③---|
口口②口
31
口②②② |①---|
口口口口 |----|
①口①口 |②---|
口①口口
32
⑥口口⑦ |①---|
②③④⑤ |②③④⑤|
口口口口 |⑥-⑦-|
①口①①
33
口口口口 |①②③-|
⑦⑧口口 |④-⑤-|
①②③口 |⑥-⑦⑧|
④⑥口⑤
34
③口口④ |①②③-|
口口①② |④-⑤⑥|
⑤⑥⑦口 |⑦-⑧-|
⑧口口口
35
⑥⑩③⑦ |①-②-|
⑧④⑨⑤ |③④⑤⑥|
口口口口 |⑦⑧⑨⑩|
口②口①
36
口口口口 |①②③④|
⑩口口⑨ |⑤⑥⑦⑧|
④③②① |⑨-⑩-|
⑧⑦⑥⑤
37
口③②① |①②③-|
口口口口 |④-⑤-|
⑤口⑥④ |⑥-⑦⑧|
口口⑧⑦
38
口⑦⑥⑤ |①②③-|
④口口③ |④-⑤⑥|
口口⑧口 |⑦-⑧-|
②①口口
39
口口口口 |①-②-|
口①②口 |③④⑤⑥|
⑦⑤⑩④ |⑦⑧⑨⑩|
③⑨⑥⑧
40
①②③④ |①②③④|
⑤⑥⑦⑧ |⑤⑥⑦⑧|
口口口口 |⑨---|
⑨口口口
41
口口口③ |①---|
口口口④ |②---|
口口口口 |③-④-|
口①②口
42
口口④口 |①---|
口③口口 |--②-|
口口②① |③-④-|
口口口口
43
口口口口 |①---|
①口②① |----|
口②口口 |②---|
②口口口
44
③口口③ |①---|
口①口③ |----|
②口①口 |②-③-|
口②②①
45
口口口口 |①---|
①③②口 |--②-|
口①④① |③-④-|
口口口口
46
②②①① |①---|
②口口① |--②-|
①口口② |----|
①①②②
47
口口口口 |----|
口口口口 |----|
口口口口 |----|
口口口口
48
⑤口口口 |①-②③|
口口④口 |④---|
口口③口 |--⑤-|
①口②①
49
口口口口 |①-②-|
④口口① |③-④-|
②口口⑤ |⑤-⑥-|
⑥口口③
50
②口口① |①-②-|
⑥口口③ |③-④-|
④口口口 |⑤-⑥-|
口口口⑤
51
口口口口 |①-②-|
口口口⑤ |③-④-|
⑥口口① |⑤-⑥-|
②④③口
52
①④⑤① |①-②③|
口③口口 |④---|
口②口口 |--⑤-|
口口口口
53
口⑤口口 |①-②-|
①口④口 |③-④-|
口口口② |⑤-⑥-|
口③⑥口
54
⑤口口④ |①-②-|
口⑤口② |③-④-|
③①口⑥ |⑤-⑥-|
口口口⑥
55
口③②⑥ |①-②-|
③口②④ |③-④-|
⑤⑤⑥口 |⑤-⑥-|
①①④口
56
口口②口 |----|
口口①② |①---|
口口口② |②---|
①①口口
57
①③口① |①---|
①③口口 |②---|
③②②口 |③---|
口口口②
58
口口口② |①---|
口口①① |----|
口②口② |②---|
口口①口
59
口①①口 |①---|
①③②口 |②---|
口口口口 |③---|
②③③②
60
④②②④ |①---|
口④③② |--②-|
①①①① |③-④-|
③口口③
61
口口口口 |①---|
①口口口 |②---|
③③②② |③---|
口①①口
62
②③①① |①-②③|
口⑤④口 |④-⑤-|
⑦口口⑥ |⑥-⑦-|
口口口口
63
口口⑤口 |①-②-|
口口口⑤ |③-④-|
口④③口 |⑤---|
②口口①
64
①②口⑤ |①-②-|
③④③口 |③-④-|
⑤⑥口口 |⑤-⑥-|
口口口口
65
口③口口 |①-②-|
口口⑥⑤ |③-④-|
口口④③ |⑤-⑥-|
①⑤②①
66
口②①① |①---|
口口口口 |----|
①口②口 |②---|
口口②口
67
口口口口 |①②③④|
④③②① |⑤-⑥-|
⑥口口⑦ |⑦-⑧-|
⑧口口⑤
68
①②口⑤ |①-②-|
③④③口 |③-④-|
⑤⑥口口 |⑤-⑥-|
口口口口
69
口③口口 |①-②-|
口口⑥⑤ |③-④-|
口口④③ |⑤-⑥-|
①⑤②①
70
口②口① |①---|
①口口口 |----|
①②口口 |②---|
口口②口
71
口口口口 |①②③④|
④③②① |⑤-⑥-|
⑥口口⑦ |⑦-⑧-|
⑧口口⑤
72
口①口③ |①---|
口口②⑤ |②-③-|
口口④口 |④-⑤-|
口①口口
73
③口①口 |①---|
⑤②口口 |②-③-|
口④口口 |④-⑤-|
口口①口
74
口①口③ |①---|
口口口⑤ |②-③-|
口口②口 |④-⑤-|
口①口④
75
③口①口 |①---|
⑤口口口 |②-③-|
口②口口 |④-⑤-|
④口①口
76
口①口② |①---|
口口③口 |②-③-|
口⑤口④ |④-⑤-|
口①口口
77
②口①口 |①---|
口③口口 |②-③-|
④口口⑤ |④-⑤-|
口口①口
78
口③口口 |①---|
口口①① |----|
口口②口 |②-③-|
①①口口
79
口口①① |①---|
①①口口 |--②-|
②②口口 |----|
口口②②
80
①②口⑤ |①-②-|
③④③口 |③-④-|
⑤⑥口口 |⑤-⑥-|
口口口口
81
口③口口 |①-②-|
口口⑥⑤ |③-④-|
口口④③ |⑤-⑥-|
①⑤②①
82
口②①① |①---|
口口口口 |----|
①口②口 |②---|
口口②口
83
口口口口 |①②③④|
④③②① |⑤-⑥-|
⑥口口⑦ |⑦-⑧-|
⑧口口⑤
84
①②口⑤ |①-②-|
③④③口 |③-④-|
⑤⑥口口 |⑤-⑥-|
口口口口
85
口③口口 |①-②-|
口口⑥⑤ |③-④-|
口口④③ |⑤-⑥-|
①⑤②①
86
口②口① |①---|
①口口口 |----|
①②口口 |②---|
口口②口
87
口口口口 |①②③④|
④③②① |⑤-⑥-|
⑥口口⑦ |⑦-⑧-|
⑧口口⑤
88
①①④④ |①---|
口口口口 |②-③-|
口②③口 |④-⑤-|
口⑤口口
89
②②口口 |①---|
口③③口 |②---|
口口口口 |③---|
口口①口
90
③③①① |①---|
③口口口 |②---|
口口口口 |③---|
②口口②
91
口口②口 |①---|
口①①① |②---|
②③口② |③---|
口③③口
92
①口口① |①---|
口口②② |----|
口口①口 |②---|
口口口②
93
口②②口 |①---|
①①口口 |②---|
②口口② |----|
①口口口
94
口口口口 |①---|
口口口口 |----|
口①①口 |②---|
②①①②
95
①③②① |①---|
口⑤④口 |②③④⑤|
口口⑥口 |⑥-⑦-|
口⑦口口
96
⑧口口⑦ |①②③④|
②⑩⑨① |⑤-⑥-|
④⑥口③ |⑦⑧⑨⑩|
口口口⑤
97
口口口口 |①-②③|
口口口口 |④-⑤-|
⑥口①⑦ |⑥-⑦-|
④③②⑤
98
口口③② |①---|
①④口口 |②---|
口口口口 |③-④-|
口口口口
99
③②口口 |①---|
④口口口 |②③④⑤|
⑤口①口 |⑥-⑦-|
⑥口⑦口
100
口口①② |①②③④|
口⑧⑦③ |⑤-⑥-|
口⑩⑨④ |⑦⑧⑨⑩|
口⑥口⑤
101
④⑤⑥口 |①-②-|
⑦口口③ |③-④⑤|
②口口口 |⑥-⑦-|
口口①口
102
③口口③ |①---|
口②③口 |②---|
口口口① |③---|
口口口口
103
口口口⑦ |①-②③|
⑥口口⑤ |④-⑤-|
④③②口 |⑥-⑦-|
口口口①
104
口口①口 |①②③④|
⑫②⑤⑨ |⑤⑥⑦⑧|
⑧⑥⑪③ |⑨⑩⑪⑫|
④⑩口⑦
105
口④③② |①-②③|
口⑥⑦口 |④-⑤-|
口口口⑤ |⑥-⑦-|
口口①口
106
⑥口口口 |①-②③|
口口口⑤ |④-⑤-|
①口口口 |⑥---|
口④③②
107
⑪⑧②① |①②③④|
⑤⑥口⑫ |⑤⑥⑦⑧|
③口⑩⑨ |⑨⑩⑪⑫|
口口⑦④
108
⑫口⑨⑤ |①②③④|
⑧⑩③口 |⑤⑥⑦⑧|
⑥④口⑪ |⑨⑩⑪⑫|
①②口⑦
109
口口口口 |①---|
口口口① |----|
口口口口 |----|
口口口口
110
口口口口 |----|
口口口口 |----|
口口口口 |----|
口口口口
111
口口口口 |①---|
③口口口 |②---|
①②口口 |③---|
口口口口
112
口①①口 |--①-|
口口口口 |----|
口口口口 |----|
口口口口
113
口口口口 |--①-|
口口②③ |-②--|
口口口口 |③---|
口口口①
114
口口口口 |①---|
口口口口 |--②-|
口口①② |----|
口口口口
115
口口口口 |①---|
口②口口 |----|
口口口口 |--②-|
口口①口
116
口口口口 |----|
口口口口 |----|
①口口口 |①---|
口口口口


不確定度: 0

最終更新:2013年11月11日 21:47