Dragon Blade
Kozo Nakamura

BASIC

Level: 5
BPM: 120
Notes: 407

1
口口口口 |----|
口口口口 |----|
口口口口 |----|
口口口口 |----|
2
口①①② |①---|
口③③口 |--②-|
口口口口 |--③-|
口口口口 |----|
3
口口口口 |①---|
口口口口 |--②-|
②①①口 |--③-|
口③③口 |----|
4
②①①口 |①---|
口③③口 |--②-|
口口口口 |--③-|
口口口口 |----|
5
口口口口 |①---|
口口口口 |--②-|
口①①② |--③-|
口③③口 |----|
6
⑦⑤③口 |①-②-|
⑧⑥④口 |③-④-|
口口口② |⑤-⑥-|
口口口① |⑦-⑧-|
7
口⑤口口 |①-②-|
口⑥⑧⑧ |③-④-|
①⑦④口 |⑤-⑥-|
②口③口 |⑦-⑧-|
8
口③⑤⑦ |①-②-|
口④⑥⑧ |③-④-|
②口口口 |⑤-⑥-|
①口口口 |⑦-⑧-|
9
口口⑤口 |①-②-|
口口⑥口 |③-④-|
口④⑦① |⑤-⑥-|
口③口② |⑦---|
10
口④④口 |①---|
③口口③ |②---|
①口口① |③---|
口②②口 |④---|
11
口口口口 |①-②-|
⑤①②⑥ |③-④-|
口③④口 |--⑤-|
口口口口 |⑥---|
12
口口口口 |①-②-|
口①②⑥ |③-④-|
⑤③④⑥ |--⑤-|
口口口口 |⑥---|
13
口④⑧口 |①-②-|
口③⑦口 |③-④-|
口②⑥口 |⑤-⑥-|
口①⑤口 |⑦-⑧-|
14
口⑦⑦口 |-①-②|
①口口② |-③-④|
③口口④ |-⑤-⑥|
⑤口口⑥ |-⑦--|
15
口口口口 |①-②-|
⑥②①⑤ |③-④-|
口④③口 |--⑤-|
口口口口 |⑥---|
16
口口口口 |①-②-|
⑥②①口 |③-④-|
⑥④③⑤ |--⑤-|
口口口口 |⑥---|
17
⑤口①② |①-②-|
⑥⑦④③ |③-④-|
口口口口 |--⑤-|
口口口口 |⑥-⑦-|
18
口口口口 |①-②-|
⑦⑤③① |③-④-|
口口口口 |⑤-⑥-|
⑧⑥④② |⑦-⑧-|
19
口①①口 |①---|
口②②口 |②--③|
⑥口③口 |--④-|
④口口⑤ |⑤-⑥-|
20
④③③④ |①--②|
口②②口 |--③-|
口①①口 |--④-|
口口口口 |----|
21
口①①口 |①-②-|
⑥⑤⑤② |③-④-|
⑦口口③ |⑤-⑥-|
⑧口口④ |⑦-⑧-|
22
口口口口 |①-②-|
⑥口口② |③-④-|
⑦①①③ |⑤-⑥-|
⑧⑤⑤④ |⑦-⑧-|
23
口口口口 |①---|
口②②口 |②---|
口①①口
口口口口

口口口口
口口口口
③④⑤⑥ |-③-④|
口口口口 |-⑤-⑥|
24
口口口口 |----|
口口口口 |----|
口口口口 |①---|
口①①口 |----|
25
⑧口口⑦ |①-②-|
⑥口口⑤ |③-④-|
④口口③ |⑤-⑥-|
②口口① |⑦-⑧-|
26
口口口口 |①--②|
口②①口 |--③-|
口④③口 |-④--|
口口⑤口 |⑤---|
27
口口口口 |①--②|
①②③口 |--③-|
口口口④ |--④-|
口口口口 |----|
28
口②②口 |①---|
口①①口 |----|
口①①口 |----|
口口口口 |②---|
29
口口口口 |①---|
②①①② |----|
②①①② |----|
口口口口 |②---|
30
口①①口 |①---|
口②②口 |②---|
口③③口 |③---|
口④④口 |④---|
31
口⑦⑦口 |①-②-|
⑥口口⑤ |③-④-|
④口口③ |⑤-⑥-|
②口口① |⑦---|
32
口口口口 |①-②-|
⑤④③口 |③-④-|
⑥口②① |⑤-⑥-|
⑦⑧口口 |⑦-⑧-|
33
⑤⑤④口 |①-②-|
⑥⑥③口 |③-④-|
口①②口 |⑤---|
口口口口 |⑥---|
34
口口⑧口 |①-②-|
口口⑦口 |③-④-|
口①⑥⑤ |⑤-⑥-|
口②③④ |⑦-⑧-|
35
②①口口 |①-②-|
③④⑤⑤ |③-④-|
口口⑥⑥ |⑤---|
口口口口 |⑥---|
36
口口口口 |①---|
口口口口 |----|
口口口口 |----|
口口①① |----|
37
口口口口 |①---|
口口②口 |----|
口口③口 |②--③|
①①④口 |--④-|
38
口④口口 |①---|
口③口口 |----|
口②口口 |②--③|
①①口口 |--④-|
39
口口①① |①---|
口②②口 |----|
口②②口 |②---|
口口口口 |----|
40
①口口① |①---|
②口口② |②---|
③口口③ |③---|
④口口④ |④---|
41
④口口④ |①--②|
口③③口 |--③-|
口②②口 |----|
口①①口 |④---|
42
口口口口 |①-②-|
⑤①②⑥ |③-④-|
口③④口 |--⑤-|
口口口口 |⑥---|
43
口口口口 |①-②-|
口①②⑥ |③-④-|
⑤③④⑥ |--⑤-|
口口口口 |⑥---|
44
口④⑧口 |①-②-|
口③⑦口 |③-④-|
口②⑥口 |⑤-⑥-|
口①⑤口 |⑦-⑧-|
45
口⑦⑦口 |-①-②|
①口口② |-③-④|
③口口④ |-⑤-⑥|
⑤口口⑥ |-⑦--|
46
口口口口 |①-②-|
⑥②①⑤ |③-④-|
口④③口 |--⑤-|
口口口口 |⑥---|
47
口口口口 |①-②-|
⑥②①口 |③-④-|
⑥④③⑤ |--⑤-|
口口口口 |⑥---|
48
⑤口①② |①-②-|
⑥⑦④③ |③-④-|
口口口口 |--⑤-|
口口口口 |⑥-⑦-|
49
口口口口 |①-②-|
口⑤③① |③-④-|
口⑥口口 |⑤---|
口口④② |⑥---|
50
口口口口 |①---|
口口②口 |②---|
口口①口 |----|
口口口口 |----|
51
口⑤③口 |①---|
①⑥④① |②---|
①②②① |③-④-|
口口口口 |⑤-⑥-|
52
③④口⑤ |①-②-|
口口口⑥ |③-④-|
②口口口 |⑤-⑥-|
①口⑧⑦ |⑦-⑧-|
53
口口口口 |①---|
③①①③ |②---|
④②②④ |③---|
口口口口 |④---|
54
⑤口口⑤ |①-②-|
⑥④③⑥ |③-④-|
⑦②①⑦ |⑤--⑥|
口口口口 |--⑦-|
55
口③⑤口 |①---|
口④⑥口 |②---|
口②②口 |③-④-|
口①①口 |⑤-⑥-|
56
⑤口④③ |①-②-|
⑥口口口 |③-④-|
口口口② |⑤-⑥-|
⑦⑧口① |⑦-⑧-|
57
口口口口 |①---|
③①①③ |②---|
④②②④ |③---|
口口口口 |④---|
58
⑧口①口 |①-②-|
口②口⑦ |③-④-|
⑥口③口 |⑤-⑥-|
口④口⑤ |⑦-⑧-|
59
口口①口 |①-②-|
⑤②口⑤ |③-④-|
口口③口 |⑤---|
口④口口 |----|


不確定度: 0

最終更新:2013年10月24日 23:20