Dragon Blade
Kozo Nakamura

ADVANCED

Level: 9
BPM: 120
Notes: 688

1
口口口口 |----|
口口口口 |----|
口口口口 |----|
口口口口 |----|
2
⑥②①⑤ |①②③④|
口④③口 |--⑤⑥|
口⑧⑦口 |--⑦⑧|
口⑩⑨口 |⑨⑩--|
3
口⑥⑤口 |①②③④|
口口口口 |--⑤⑥|
②⑧⑦① |--⑦⑧|
④⑩⑨③ |⑨⑩--|
4
⑥②①⑤ |①②③④|
口④③口 |--⑤⑥|
口⑧⑦口 |--⑦⑧|
口⑩⑨口 |⑨⑩--|
5
口⑥⑤口 |①②③④|
口口口口 |--⑤⑥|
②⑦⑦① |--⑦-|
④口口③ |----|
6
口口③口 |①-②-|
口④③口 |③-④-|
④口口①
②②①口

口口口⑤
⑥口口⑤
口⑥⑦⑦ |⑤-⑥-|
⑧⑧口口 |⑦-⑧-|
7
口②①口 |①-②-|
④②①口 |③-④-|
④口口口
口口③③

⑧口口⑧
口口⑦⑤
口口⑤⑦ |⑤-⑥-|
⑥⑥口口 |⑦-⑧-|
8
口①④口 |①-②-|
口口口口 |③-④-|
口①②④
③③口②

⑤⑦口⑧
⑦口⑥⑥
⑤口⑧口 |⑤-⑥-|
口口口口 |⑦-⑧-|
9
③口口口 |①-②-|
口③④口 |③-④-|
口口口②
①①④②

口⑤口⑥
⑤口口⑥
口⑦⑧口 |⑤-⑥-|
口⑨⑩口 |⑦⑧⑨⑩|
10
口③④口 |①-②-|
口口口口 |③④--|
①口口②
①口口②

口口口⑨
口口口口
口⑦口口 |⑤⑥⑦-|
⑧⑤⑥口 |⑧⑨--|
11
口口口口 |①-②-|
④③②① |③-④⑤|
口口⑤口
口口口口

口口口口
口⑩⑧⑥
⑨⑦口口 |-⑥⑦-|
口口口口 |⑧⑨-⑩|
12
口口口口 |①-②-|
口口⑤口 |③-④⑤|
④③②①
口口口口

口口口口
口⑦口口
口口口⑥ |-⑥⑦-|
口⑧⑧口 |⑧---|
13
⑧口④口 |①-②-|
口⑥口② |③-④-|
⑦口③口 |⑤-⑥-|
口⑤口① |⑦-⑧-|
14
口口口口 |①②-③|
⑤⑤①口 |-④-⑤|
口口④④
②②③③

⑧⑧口口
口口⑦⑦
⑥⑥口口 |-⑥-⑦|
口口口口 |-⑧--|
15
口口口口 |①-②-|
口口⑤口 |③-④⑤|
口口口口
④③②①

口口口口
⑨⑦口口
口⑩口口 |-⑥⑦-|
口口⑧⑥ |⑧⑨-⑩|
16
④③②① |①-②-|
口口口口 |③-④⑤|
口口⑤口
口口口口

口口口⑥
口口口口
口⑦口口 |-⑥⑦-|
口⑧⑧口 |⑧---|
17
①口口④ |①-②-|
口②③口 |③-④⑤|
口⑤口口
口口口口

⑦口口口
口⑧⑨口
口口⑥口 |-⑥⑦-|
口口口口 |⑧-⑨-|
18
④②④② |①-②-|
⑥⑧⑥⑧ |③-④-|
⑦⑤⑦⑤ |⑤-⑥-|
③①③① |⑦-⑧-|
19
①③②① |①---|
口⑤④口 |②③④⑤|
⑪口口⑩ |--⑥⑦|
⑨⑦⑥⑧ |⑧⑨⑩⑪|
20
③②①③ |①--②|
⑤②①④ |--③-|
⑦口口⑥ |--④⑤|
口口口⑧ |⑥⑦⑧-|
21
③口口② |①-②③|
⑤口口④ |④⑤⑥⑦|
⑦①口⑥
口口口口

口⑩⑨口
口⑫⑪口
口⑭⑬口 |⑧-⑨⑩|
口口口⑧ |⑪⑫⑬⑭|
22
③⑩⑨② |①-②③|
⑤⑫⑪④ |④⑤⑥⑦|
⑦⑭⑬⑥ |⑧-⑨⑩|
口口①⑧ |⑪⑫⑬⑭|
23
口口⑨口 |①---|
③⑧口② |②③④⑤|
⑤口⑦④ |-⑥-⑦|
口⑥①口 |-⑧-⑨|
24
口①口口 |①---|
③②②③ |--②-|
③口口③ |③---|
口口口口 |----|
25
①①④④ |①-②③|
⑦⑨⑫⑩ |④-⑤⑥|
⑦⑪⑧⑩ |⑦-⑧⑨|
②③⑥⑤ |⑩-⑪⑫|
26
⑤①③口 |①②-③|
口口口口 |④-⑤⑥|
口口口口
口④②⑥

口⑨⑨⑦
口口口口
口口口口 |-⑦⑧-|
⑧口口口 |⑨---|
27
⑥⑤⑤⑥ |①②-③|
③①①③ |④-⑤⑥|
④②②④
口口口口

口口口口
口⑦⑦口
口⑦⑦口 |--⑦-|
口口口口 |----|
28
口④口口 |①②-③|
口⑤③① |④-⑤-|
②⑥口口 |⑥-⑦-|
⑨⑦口⑧ |⑧⑨--|
29
口口④口 |①②-③|
①③⑤口 |④-⑤-|
口口⑥② |⑥-⑦-|
⑧口⑦⑧ |⑧---|
30
口口①口 |①②--|
⑦②③⑦ |③④--|
⑧④⑤⑧ |⑤⑥--|
口⑥口口 |⑦⑧--|
31
口②①① |①-②-|
口口③口 |③-④-|
④②口口
口④口③

⑥口⑨⑨
口口口⑤
口口⑦口 |⑤⑥⑦⑧|
⑧口口口 |⑨---|
32
口③口口 |①-②-|
③口②② |③-④-|
口④口①
口④口①

⑦口⑤口
⑧⑦口口
⑧口⑤⑥ |⑤-⑥-|
口口⑥口 |⑦-⑧-|
33
口④口口 |①-②-|
口口①① |③-④-|
口④②口
③③口②

口口⑤⑪
⑩⑥口口
⑧口口⑦ |⑤⑥⑦⑧|
口⑫⑨口 |⑨⑩⑪⑫|
34
③③②⑥ |①-②-|
⑦④①② |③-④-|
④⑦①⑥ |⑤-⑥-|
⑧⑧⑤⑤ |⑦-⑧-|
35
③③①口 |①-②-|
口④①口 |③-④-|
口④②口
口口口②

口口⑪⑤
⑥口⑨口
⑧⑫口口 |⑤⑥⑦⑧|
口⑩⑦口 |⑨⑩⑪⑫|
36
⑦口口⑥ |①---|
口⑤④① |----|
口③②① |②③④⑤|
口口口口 |-⑥⑦-|
37
口②②口 |①---|
口③③口 |----|
口④④口 |②--③|
口①①口 |--④-|
38
口口口口 |①---|
④口口④ |----|
③口口③ |②--③|
②①①② |--④-|
39
①②②① |①---|
②口口② |----|
口口口口 |②---|
口口口口 |----|
40
③口口⑥ |①---|
④①①④ |②③--|
④①①④ |④---|
⑤口口② |⑤⑥--|
41
口①①口 |①--②|
口②②口 |--③-|
口③③口 |--④⑤|
⑤口⑥④ |⑥---|
42
口口口口 |①-②-|
④③②① |③-④⑤|
口口⑤口
口口口口

口口口口
口⑩⑧⑥
⑨⑦口口 |-⑥⑦-|
口口口口 |⑧⑨-⑩|
43
口口口口 |①-②-|
口口⑤口 |③-④⑤|
④③②①
口口口口

口口口口
口⑦口口
口口口⑥ |-⑥⑦-|
口⑧⑧口 |⑧---|
44
⑧口④口 |①-②-|
口⑥口② |③-④-|
⑦口③口 |⑤-⑥-|
口⑤口① |⑦-⑧-|
45
口口口口 |①②-③|
⑤⑤①口 |-④-⑤|
口口④④
②②③③

⑧⑧口口
口口⑦⑦
⑥⑥口口 |-⑥-⑦|
口口口口 |-⑧--|
46
口口口口 |①-②-|
口口⑤口 |③-④⑤|
口口口口
④③②①

口口口口
⑨⑦口口
口⑩口口 |-⑥⑦-|
口口⑧⑥ |⑧⑨-⑩|
47
④③②① |①-②-|
口口口口 |③-④⑤|
口口⑤口
口口口口

口口口⑥
口口口口
口⑦口口 |-⑥⑦-|
口⑧⑧口 |⑧---|
48
①口口④ |①-②-|
口②③口 |③-④⑤|
口⑤口口
口口口口

⑦口口口
口⑧⑨口
口口⑥口 |-⑥⑦-|
口口口口 |⑧-⑨-|
49
③①③① |①-②-|
口口口口 |③-④-|
口口口口
④②④②

口⑥⑨⑨
口⑥⑤⑦
⑩⑧口⑤ |⑤-⑥-⑦-|
⑩⑧口⑦ |⑧-⑨-⑩-|
50
②④口口 |①-②-③-|
②④③⑤ |④-⑤-⑥-|
口⑥①③ |----|
口⑥①⑤ |----|
51
口④①口 |①---|
口②口① |②③④⑤|
①口③口
口①口⑤

⑥口口⑦
⑧口口⑨
⑩口口⑪ |⑥⑦⑧⑨|
口⑫⑬口 |⑩⑪⑫⑬|
52
口③口⑥ |①②③④|
⑤⑦②口 |⑤⑥⑦⑧|
口①口⑧
口口口④

⑪口口⑯
⑮口⑫口
口⑬⑩口 |⑨⑩⑪⑫|
⑨口⑭口 |⑬⑭⑮⑯|
53
口①⑩口 |①---|
⑤⑨⑥② |②③-④|
③⑦⑧④ |⑤-⑥⑦|
口口口口 |-⑧⑨⑩|
54
④⑦⑦② |①-②-|
④⑥⑥② |③-④-|
①⑤⑤③ |⑤--⑥|
①口口③ |--⑦-|
55
口口口口 |①---|
②④口口 |②③④⑤|
口口⑤口
口①①③

口⑥口⑪
⑫口口⑦
口⑩口⑬ |⑥⑦⑧⑨|
⑧口⑨口 |⑩⑪⑫⑬|
56
口⑤口口 |①②③④|
口①⑥口 |⑤⑥⑦⑧|
③口②口
⑦口⑧④

⑪口口⑭
⑮口口⑩
口⑨⑫⑯ |⑨⑩⑪⑫|
口⑬口口 |⑬⑭⑮⑯|
57
⑥①口口 |①---|
⑩②⑤口 |②③-④|
口④③⑨ |⑤-⑥⑦|
⑧口口⑦ |-⑧⑨⑩|
58
⑧②口① |①②③④|
口口③⑦ |⑤⑥⑦⑧|
④⑥口口
口口⑤口

口⑭⑨⑮
口⑩⑬口
口⑯口⑪ |⑨⑩⑪⑫|
⑫口口口 |⑬⑭⑮⑯|
59
④口⑦口 |①②③④|
口⑥口③ |⑤⑥⑦⑧|
②口⑤口 |⑨---|
⑧口①⑨ |----|


不確定度: 0

最終更新:2013年10月24日 23:20