Right on time (Ryu☆Remix)
Ryu☆

BASIC

Level: 5
BPM: 149
Notes: 263

1
口口口口 |----|
口口口口 |----|
口口口口 |----|
口口口口 |----|
2
口口④口 |①---|
口口③口 |②---|
口口②口 |③---|
口口①口 |④---|
3
口口口口 |①---|
①口口口 |②---|
口②口口 |③---|
口④③口 |④---|
4
口口口口 |①---|
口口口① |②---|
口口②口 |③---|
口③④口 |④---|
5
口口口口 |①---|
①口口口 |②---|
口②口口 |③---|
口④③口 |④---|
6
口口口口 |①---|
口口口口 |----|
口①口口 |②---|
口②②口 |----|
7
口口口口 |①---|
①口口① |②---|
③④口口 |③---|
②口口口 |④---|
8
口口口① |①---|
口口②口 |②---|
口③④口 |③---|
口口口口 |④---|
9
①口口口 |①---|
口②口口 |②---|
口④③口 |③---|
口口口口 |④---|
10
口口口① |①---|
口口②口 |②---|
口③④口 |③---|
口口口口 |④---|
11
③口③口 |①---|
口口口口 |②---|
口②口口 |③---|
口①口口 |----|
12
口口口口 |----|
口口口口 |----|
口①口口 |----|
口口口口 |①---|
13
口④口口 |①---|
口②口③ |②---|
口口口① |③---|
口口口口 |④---|
14
口口口口 |①---|
①口①口 |②---|
②④②口 |③---|
③口③口 |④---|
15
口口口口 |①---|
口②口③ |②---|
口口口① |③---|
口④口口 |④---|
16
口口口口 |①---|
②口②口 |②---|
①口①口
口口口口

③口③口
口口口口
口口④口 |③---|
口口口口 |④---|
17
口口④口 |①---|
③口②口 |②---|
①口口口 |③---|
口口口口 |④---|
18
口口口口 |①---|
口①口① |②---|
口②④② |③---|
口③口③ |④---|
19
口口④口 |①---|
口③②口 |②---|
口①口口 |③---|
口口口口 |④---|
20
口①口口 |①---|
口口口口 |----|
口口口口 |②---|
口②②口 |----|
21
口口口口 |①---|
①口口① |----|
口口口口 |----|
口口口口 |----|
22
口口④口 |①---|
口口③口 |②---|
口口②口 |③---|
口口①口 |④---|
23
口④口口 |①---|
口③口口 |②---|
口②口口 |③---|
口①口口 |④---|
24
口口口口 |①---|
口口口口 |②---|
④口口③ |③---|
②口口① |④---|
25
口口口口 |①---|
口③②① |②---|
④口口口 |③---|
口口口口 |④---|
26
口口口口 |①---|
④口口口 |②---|
口③②① |③---|
口口口口 |④---|
27
口口口口 |①---|
口③②① |②---|
④口口口 |③---|
口口口口 |④---|
28
口口②② |①---|
口口口口 |--②-|
口口口口 |----|
口口①① |----|
29
口口口口 |①---|
①②③口 |②---|
口口口④ |③---|
口口口口 |④---|
30
口口口口 |①---|
口口口④ |②---|
①②③口 |③---|
口口口口 |④---|
31
口口口口 |①---|
①②③口 |②---|
口口口④ |③---|
口口口口 |④---|
32
②②口口 |①---|
口口口口 |--②-|
口口口口 |----|
①①口口 |----|
33
口口口① |①---|
口口③② |②---|
口口④口 |③---|
口口口口 |④---|
34
口口口口 |①---|
口口口口 |②---|
口①口口 |③---|
③②口④ |④---|
35
口口口口 |①---|
口④③口 |②---|
口口②① |③---|
口口口口 |④---|
36
①①口口 |①---|
口口口口 |--②-|
口口口口 |----|
口口②② |----|
37
①口口口 |①---|
②③口口 |②---|
口④口口 |③---|
口口口口 |④---|
38
口口口口 |①---|
口口口口 |②---|
口口①口 |③---|
④口②③ |④---|
39
口口口口 |①---|
口③④口 |②---|
①②口口 |③---|
口口口口 |④---|
40
②②①① |①---|
口口口口 |----|
口口口口 |②---|
口口口口 |----|
41
口口口口 |----|
口口口口 |----|
口口口口 |----|
口口口① |①---|
42
口④口口 |①---|
口③口① |②---|
口口口口 |③---|
口②口口 |④---|
43
口口口口 |①---|
①口①口 |②---|
②口②④ |③---|
③口③口 |④---|
44
口③口① |①---|
口口口口 |②---|
口②口口 |③---|
口④口口 |④---|
45
③口③口 |①---|
②口②口 |②---|
①口①口 |③---|
④口口口 |④---|
46
口口④口 |①---|
①口③口 |②---|
口口口口 |③---|
口口②口 |④---|
47
口口口口 |①---|
口①口① |②---|
④②口② |③---|
口③口③ |④---|
48
①口③口 |①---|
口口口口 |②---|
口口②口 |③---|
口口④口 |④---|
49
口口口③ |①-②-|
口口口口 |--③-|
口②口① |----|
口④口口 |④---|
50
口口④口 |①---|
口①口③ |②---|
口口口口 |③---|
口口口② |④---|
51
口口口口 |①---|
①①口口 |②---|
口口②② |③---|
③③④口 |④---|
52
口口口口 |①---|
③口①口 |②---|
口口口口 |③---|
②口④口 |④---|
53
③③口口 |①---|
口口②② |②---|
①①口口 |③---|
口口④口 |④---|
54
口④口口 |①---|
③口①口 |②---|
口口口口 |③---|
②口口口 |④---|
55
口口口口 |①---|
口口①① |②---|
②②口口 |③---|
口④③③ |④---|
56
口口④口 |①---|
口①口③ |②---|
口口口口 |③---|
口口口② |④---|
57
①①口口 |①---|
①口口口 |----|
②②口口 |②---|
②②口口 |----|
58
口口口口 |①---|
口①①① |----|
口口①口 |----|
口口口口 |----|
59
口口④口 |①---|
口口③口 |②---|
口口②口 |③---|
口口①口 |④---|
60
口口口口 |①---|
口口口口 |②---|
③口口④ |③---|
①口口② |④---|
61
口口口口 |①---|
口③④口 |②---|
口①②口 |③---|
口口口口 |④---|
62
①①口口 |①---|
口口口口 |----|
口口口口 |----|
口口口口 |----|


不確定度: 0

最終更新:2013年10月24日 23:17