this storyends
winnie

EXTREME

Level: 8
BPM: 238
Notes: 547

全程BPM在238附近飄忽不定
1
口口口口 |----|
口口口口 |----|
口口口口 |----|
口口口口 |----|
2
口口②② |①---|
①①口口 |--②-|
口口口口 |----|
②②①① |----|
3
口口口口 |----|
口口口口 |----|
口口口口 |----|
口口口口 |----|
4
②②①① |①---|
口口口口 |--②-|
①①口口 |----|
口口②② |----|
5
口口口口 |----|
口口口口 |----|
口口口口 |----|
口口口口 |----|
6
①①②② |①---|
④口口口 |--②-|
口口⑤③ |--③-|
②②①① |④-⑤-|
7
口口口⑦ |①-②-|
口①③⑤ |③-④-|
④②口口 |⑤-⑥-|
⑥口口口 |⑦---|
8
口口口口 |①---|
②②口口 |--②-|
口口口口 |----|
口口①① |----|
9
口口②② |①---|
口口口口 |--②-|
口口口口 |----|
①①口口 |----|
10
②②③口 |①---|
口④①① |--②-|
①①⑤口 |--③-|
口口②② |④-⑤-|
11
⑤口口② |①-②-|
口口⑥口 |③-④-|
⑦口口④ |⑤-⑥-|
③①口口 |⑦---|
12
口口口口 |①---|
②②口口 |--②-|
口口口口 |----|
口口①① |----|
13
①①口口 |①---|
口口口口 |--②-|
口口②② |----|
口口口口 |----|
14
②②①① |①---|
④口口口 |--②-|
口口⑤③ |--③-|
①①②② |④-⑤-|
15
口口口⑦ |①-②-|
口①③⑤ |③-④-|
④②口口 |⑤-⑥-|
⑥口口口 |⑦---|
16
口口口口 |①---|
②②口口 |--②-|
口口口口 |----|
口口①① |----|
17
口口②② |①---|
口口口口 |--②-|
口口口口 |----|
①①口口 |----|
18
②②③口 |①---|
口④①① |--②-|
①①⑤口 |--③-|
口口②② |④-⑤-|
19
⑤口口② |①-②-|
口口⑥口 |③-④-|
⑦口口④ |⑤-⑥-|
③①口口 |⑦---|
20
口口口口 |①---|
②②口口 |--②-|
口口口口 |----|
口口①① |----|
21
①①口口 |①---|
口口口口 |--②-|
口口②② |----|
口口口口 |----|
22
口口口口 |①-②-|
口④口口 |--③-|
口口口口 |----|
③口②① |④---|
23
口②口② |①---|
①口①口 |②---|
口③口③ |③---|
口口口口 |----|
24
①口②口 |①-②-|
口⑤口⑥ |③-④-|
③口④口 |----|
口口口口 |⑤-⑥-|
25
④口③口 |①-②-|
口口⑤口 |----|
口口口口 |③-④-|
口①口② |⑤---|
26
口口口口 |①-②-|
口口口口 |③-④-|
②口①口 |----|
④⑤③⑤ |⑤---|
27
③口③口 |①---|
口②口② |②---|
④①④① |③---|
口口口口 |④---|
28
口口口口 |①-②-|
③口④口 |③-④-|
口⑤口⑥ |----|
①口②口 |⑤-⑥-|
29
③①④② |①-②-|
口口口口 |----|
⑤口⑥口 |③-④-|
口口口口 |⑤-⑥-|
30
⑥口⑤口 |①-②-|
口口口口 |③-④-|
口④口③ |----|
口②口① |⑤-⑥-|
31
口③口③ |①-②-|
②口①口 |③---|
口④口④ |④---|
口口口口 |----|
32
①口②口 |①-②-|
口⑤口⑥ |③-④-|
③口④口 |----|
口口口口 |⑤-⑥-|
33
③③口口 |①-②-|
口口口口 |----|
口口③③ |③---|
口①口② |----|
34
口口①① |①---|
口③口② |----|
①①口口 |----|
口口口口 |②-③-|
35
④口③口 |①-②-|
口口口口 |----|
⑥口⑤口 |③-④-|
口②口① |⑤-⑥-|
36
口②口① |①-②-|
⑥口⑤口 |③-④-|
口④口③ |----|
口口口口 |⑤-⑥-|
37
口⑥口⑤ |①-②-|
口口口口 |----|
口④口③ |③-④-|
②口①口 |⑤-⑥-|
38
口口口口 |①-②-|
口口④口 |--③-|
口口口口 |----|
③口②① |④---|
39
口②口② |①---|
①口口口 |②---|
口③口③ |③---|
口口口口 |----|
40
①口口口 |①---|
口④口口 |②-③-|
②口③口 |----|
口口口口 |④---|
41
④口③口 |①-②-|
口口⑤口 |----|
口口口口 |③-④-|
口①口② |⑤---|
42
口口口口 |①-②-|
口口口口 |③-④-|
②口①口 |----|
④⑤③⑤ |⑤---|
43
③口③口 |①---|
口②口② |②---|
④①④① |③---|
口口口口 |④---|
44
口口口口 |①---|
②口③口 |②-③-|
口④口口 |----|
①口口口 |④---|
45
③①④② |①-②-|
口口口口 |----|
⑤口⑥口 |③-④-|
口口口口 |⑤-⑥-|
46
口口口口 |①-②-|
⑤口口口 |③-④-|
口④口② |----|
口③口① |⑤---|
47
口③口③ |①-②-|
口口①② |③---|
口④口④ |④---|
口口口口 |----|
48
①口口口 |①---|
口④口口 |②-③-|
②口③口 |----|
口口口口 |④---|
49
③③口口 |①-②-|
③口口口 |----|
口口③③ |③---|
口①③② |----|
50
口口①① |①---|
口口①② |----|
①①口口 |----|
①口口口 |②---|
51
口口口口 |①---|
口口口口 |②-③-|
③口④口 |----|
口②口① |④---|
52
口口口① |①---|
口口④口 |②-③-|
口③口② |----|
口口口口 |④---|
53
口口口口 |①---|
口⑦口⑥ |②-③-|
口⑤口④ |④-⑤-|
口③①② |⑥-⑦-|
54
①口②① |①-②-|
口口③口 |--③-|
⑤口④口 |--④-|
口口⑥口 |⑤-⑥-|
55
口口口口 |--①-|
②②口口 |--②-|
口①口口 |----|
口口口口 |----|
56
口②口① |①-②-|
口口口③ |--③-|
口口口④ |--④-|
口⑤⑤口 |--⑤-|
57
口口口口 |--①-|
口②②口 |--②-|
口①①口 |----|
口口口口 |----|
58
③③口① |①-②-|
④口口口 |--③-|
口⑤口② |--④-|
口口口口 |--⑤-|
59
口口口口 |--①-|
口口①口 |--②-|
口口②口 |--③-|
口③口③ |----|
60
口口口口 |①---|
口①口① |----|
口口口口 |----|
口口口口 |----|
61
①①①① |①---|
①口①口 |--②-|
②②②② |----|
②③②③ |③---|
62
④口③② |①---|
口①口① |②-③-|
⑤口口口 |--④-|
口口口口 |⑤---|
63
⑤口④口 |①-②-|
口⑤口④ |--③-|
口③②① |④---|
口口口口 |⑤---|
64
口②口② |①---|
口口口口 |--②-|
口③口③ |----|
①口①口 |③---|
65
①口⑥口 |①-②-|
口口②⑤ |③-④-|
③口口口 |--⑤-|
口口④口 |⑥---|
66
③③口口 |①---|
口②口口 |--②-|
口口口口 |----|
口①口口 |③---|
67
口口③③ |①---|
口口②口 |--②-|
口口口口 |----|
口口①口 |③---|
68
口口口口 |①---|
口③口② |--②-|
口口口口 |----|
口①口① |③---|
69
①①①① |①---|
①口①口 |--②-|
②②②② |----|
②③②③ |③---|
70
④口③② |①---|
口①口① |②-③-|
⑤口口口 |--④-|
口口口口 |⑤---|
71
⑤口④口 |①-②-|
口⑤口④ |--③-|
口③②① |④---|
口口口口 |⑤---|
72
口②口② |①---|
口口口口 |--②-|
口③口③ |----|
①口①口 |③---|
73
①口⑥口 |①-②-|
口口②⑤ |③-④-|
③口口口 |--⑤-|
口口④口 |⑥---|
74
③③口口 |①---|
口②口口 |--②-|
口口口口 |----|
口①口口 |③---|
75
口口③③ |①---|
口口②口 |--②-|
口口口口 |----|
口口①口 |③---|
76
口口口口 |①---|
口③口② |--②-|
口口口口 |----|
口①口① |③---|
77
①①①① |①---|
①口①口 |--②-|
②②②② |----|
②③②③ |③---|
78
④口③② |①---|
口①口① |②-③-|
⑤口口口 |--④-|
口口口口 |⑤---|
79
⑤口④口 |①-②-|
口⑤口④ |--③-|
口③②① |④---|
口口口口 |⑤---|
80
口②口② |①---|
口口口口 |--②-|
口③口③ |----|
①口①口 |③---|
81
①口⑥口 |①-②-|
口口②⑤ |③-④-|
③口口口 |--⑤-|
口口④口 |⑥---|
82
③③口口 |①---|
口②口口 |--②-|
口口口口 |----|
口①口口 |③---|
83
口口③③ |①---|
口口②口 |--②-|
口口口口 |----|
口口①口 |③---|
84
口口口口 |①---|
口③口② |--②-|
口口口口 |----|
口①口① |③---|
85
①①①① |①---|
①口①口 |--②-|
②②②② |----|
②③②③ |③---|
86
④口③② |①---|
口①口① |②-③-|
⑤口口口 |--④-|
口口口口 |⑤---|
87
⑤口④口 |①-②-|
口⑤口④ |--③-|
口③②① |④---|
口口口口 |⑤---|
88
口②口② |①---|
口口口口 |--②-|
口③口③ |----|
①口①口 |③---|
89
①口⑥口 |①-②-|
口口②⑤ |③-④-|
③口口口 |--⑤-|
口口④口 |⑥---|
90
③③口口 |①---|
口②口口 |--②-|
口口口口 |----|
口①口口 |③---|
91
口口③③ |①---|
口口②口 |--②-|
口口口口 |----|
口口①口 |③---|
92
口③口口 |①---|
口口口② |--②-|
口口口口 |----|
口①口① |③---|
93
①口口口 |①-②-|
口⑦口⑥ |③-④-|
口⑤口④ |⑤-⑥-|
口③口② |⑦---|
94
口①①口 |①---|
口口口口 |----|
口口口口 |----|
口口口口 |----|


不確定度: 0

タグ:

+ タグ編集
  • タグ:

このサイトはreCAPTCHAによって保護されており、Googleの プライバシーポリシー利用規約 が適用されます。

最終更新:2013年04月07日 23:47