Go For The Top
U1 overground

BASIC

Level: 4
BPM: 180
Notes: 261

1
口口口口 |----|
口口口口 |----|
口口口口 |----|
口口口口 |----|
2
口口口口 |----|
口口口口 |----|
口口口口 |----|
口口口口 |----|
3
口口口口 |----|
口口口口 |----|
口口口口 |----|
口口口口 |----|
4
口口口口 |①---|
口口口口 |----|
①口口口 |----|
①口口口 |----|
5
口口口口 |①---|
口口口口 |----|
口口口① |----|
口口口① |----|
6
口①口口 |①---|
口①口口 |----|
口口口口 |----|
口口口口 |----|
7
口口①口 |①---|
口口①口 |----|
口口口口 |----|
口口口口 |----|
8
口口口口 |①---|
①②④③ |②---|
口口口口 |③---|
口口口口 |④---|
9
口口口口 |①---|
口口口口 |②---|
①②④③ |③---|
口口口口 |④---|
10
口口口口 |①---|
口口口口 |②---|
口口口口 |③---|
①②④③ |④---|
11
口④口口 |①---|
口口口口 |②---|
①②口③ |③---|
口口口口 |④---|
12
口口①口 |①---|
口口口口 |----|
口口口口 |----|
口口口口 |----|
13
口口口口 |----|
口①②口 |--①-|
③口口口 |②--③|
口④口口 |--④-|
14
口口口口 |①---|
口口口口 |----|
口口口口 |----|
口口①口 |----|
15
口②口口 |----|
口口口口 |----|
口口口① |①---|
口口口口 |②---|
16
口口①口 |①---|
口口口口 |----|
口口口口 |----|
口口口口 |----|
17
口口口口 |①---|
口口口口 |②---|
④③②① |③---|
口口口口 |④---|
18
口口口口 |①---|
口口口口 |②---|
口口口口 |③---|
①②③④ |④---|
19
口口口口 |①---|
口口口口 |②---|
④③②① |③---|
口口口口 |④---|
20
口③③口 |--①-|
口①②口 |②---|
口口口口 |----|
口口口口 |③---|
21
口口口口 |--①-|
口①②口 |②---|
口③③口 |----|
口口口口 |③---|
22
口③③口 |--①-|
口①②口 |②---|
口口口口 |----|
口口口口 |③---|
23
口口口口 |①---|
口口口口 |②---|
口口口口 |③---|
④③②① |④---|
24
口③③口 |--①-|
口①②口 |②---|
口口口口 |----|
口口口口 |③---|
25
口口口口 |--①-|
口①②口 |②---|
口③③口 |----|
口口口口 |③---|
26
口③③口 |--①-|
口①②口 |②---|
口口口口 |----|
口口口口 |③---|
27
口口口口 |①---|
①口口① |----|
①口口① |----|
口口口口 |----|
28
口口④④ |①---|
口口③口 |②---|
口口②口 |③---|
口口①口 |④---|
29
④④口口 |①---|
口③口口 |②---|
口②口口 |③---|
口①口口 |④---|
30
口口④④ |①---|
口口口③ |②---|
口口口② |③---|
口口口① |④---|
31
④④口口 |①---|
③口口口 |②---|
②口口口 |③---|
①口口口 |④---|
32
口④④口 |①---|
口③③口 |②---|
口②②口 |③---|
口①①口 |④---|
33
④口口④ |①---|
③口口③ |②---|
②口口② |③---|
①口口① |④---|
34
口④④口 |①---|
口③③口 |②---|
口②②口 |③---|
口①①口 |④---|
35
④④④④ |①---|
③③③③ |②---|
②②②② |③---|
①①①① |④---|
36
口口口口 |①---|
口口口口 |②---|
口口④③ |③---|
①②口口 |④---|
37
口口④③ |①---|
①②口口 |②---|
口口口口 |③---|
口口口口 |④---|
38
①②口口 |①---|
口口④③ |②---|
口口口口 |③---|
口口口口 |④---|
39
口口口口 |①---|
口口口口 |②---|
口口口口 |③---|
①②③④ |④---|
40
口口口口 |①---|
口口④③ |②---|
①②口口 |③---|
口口口口 |④---|
41
①②④③ |①---|
口口口口 |②---|
口口口口 |③---|
口口口口 |④---|
42
口口口口 |①---|
①②口口 |②---|
口口口③ |③---|
口④口口 |--④-|
43
口口口口 |----|
口口口口 |----|
口口口口 |----|
口口口口 |----|
44
口口口口 |----|
口口口口 |----|
口口口口 |----|
口口口口 |----|
45
②②①① |①---|
口口口口 |--②-|
口口③③ |----|
口口口口 |③---|
46
口口口口 |--①-|
口③②口 |----|
①①口口 |②---|
口口口口 |③---|
47
②②①① |①---|
口口口口 |--②-|
口口③③ |----|
口口口口 |③---|
48
口口口口 |--①-|
口口口口 |----|
①①口口 |②---|
口③②口 |③---|
49
口口口口 |①---|
①②④③ |②---|
口口口口 |③---|
口口口口 |④---|
50
口口口口 |①---|
口口口口 |②---|
①②④③ |③---|
口口口口 |④---|
51
口口口口 |①---|
口口口口 |②---|
口口口口 |③---|
①②④③ |④---|
52
口④口口 |①---|
口口口口 |②---|
①②口③ |③---|
口口口口 |④---|
53
口口①口 |①---|
口口口口 |----|
口口口口 |----|
口口口口 |----|
54
②口口口 |①---|
口口口口 |----|
口①①口 |②---|
口口口口 |----|
55
口口口① |①---|
口口口口 |----|
口口口口 |----|
口口口口 |----|
56
口口①口 |----|
口②口口 |----|
口口口口 |①---|
口口口口 |②---|
57
口口口口 |①---|
口②②口 |----|
口口①口 |----|
口口口口 |②---|
58
②口口② |①---|
口口口口 |----|
口口口口 |----|
口①①口 |②---|
59
口②②口 |①---|
口口口口 |----|
①口口① |----|
口口口口 |②---|
60
口口口口 |①---|
口口口口 |----|
口①①口 |----|
口口口口 |----|
61
④④口口 |①---|
③口口口 |②---|
口②口口 |③---|
①口口口 |④---|
62
口口④④ |①---|
口口口③ |②---|
口口②口 |③---|
口口口① |④---|
63
④④口口 |①---|
口③口口 |②---|
②口口口 |③---|
口①口口 |④---|
64
口口④④ |①---|
口口③口 |②---|
口口口② |③---|
口口①口 |④---|
65
④④口口 |①---|
口③口口 |②---|
②口口口 |③---|
①口口口 |④---|
66
口口④④ |①---|
口口③口 |②---|
口口口② |③---|
口口口① |④---|
67
④④口口 |①---|
③口口口 |②---|
口②口口 |③---|
口①口口 |④---|
68
口口口口 |①---|
口②②口 |----|
口②②口 |②---|
口口①口 |----|


不確定度: 0

最終更新:2013年10月24日 23:15