Go For The Top
U1 overground

ADVANCED

Level: 8
BPM: 180
Notes: 562

1
口口口口 |----|
口口口口 |----|
口口口口 |----|
口口口口 |----|
2
口口口口 |----|
口口口口 |----|
口口口口 |----|
口口口口 |----|
3
口口口口 |----|
口口口口 |----|
口口口口 |----|
口口口口 |----|
4
口口口口 |①---|
口①①口 |----|
口①①口 |----|
口口口口 |----|
5
口口口口 |----|
口口口口 |----|
口口口口 |----|
口口口口 |----|
6
口口口口 |①---|
①口口① |----|
①口口① |----|
口口口口 |----|
7
口口口口 |----|
口口口口 |----|
口口口口 |----|
口口口口 |----|
8
①口口② |①-②-|
③口口④ |③-④-|
⑤口口⑥ |⑤-⑥-|
⑦口口⑧ |⑦-⑧-|
9
口①②口 |①-②-|
口③④口 |③-④-|
口⑤⑥口 |⑤-⑥-|
口⑦⑧口 |⑦-⑧-|
10
⑦口口⑧ |①-②-|
⑤口口⑥ |③-④-|
③口口④ |⑤-⑥-|
①口口② |⑦-⑧-|
11
口口口口 |①-②-|
⑤⑤⑥⑥ |③-④-|
口③④口 |⑤---|
口①②口 |⑥---|
12
①口口① |①---|
口口口口 |----|
口口口口 |----|
口口口口 |----|
13
口①口④ |----|
③口口口 |--①-|
口口口口 |②--③|
口口口② |--④-|
14
口口口口 |①---|
口口口口 |----|
口①口口 |----|
口口口口 |----|
15
口口口口 |----|
口口口口 |----|
口口②② |①---|
①①口口 |②---|
16
①②③口 |①②③-|
④⑤⑥口 |④⑤⑥-|
⑦⑧⑨口 |⑦⑧⑨-|
⑩⑪⑫口 |⑩⑪⑫-|
17
口③②① |①②③-|
口⑥⑤④ |④⑤⑥-|
口⑨⑧⑦ |⑦⑧⑨-|
口⑫⑪⑩ |⑩⑪⑫-|
18
①②③口 |①②③-|
④⑤⑥口 |④⑤⑥-|
⑦⑧⑨口 |⑦⑧⑨-|
⑩⑪⑫口 |⑩⑪⑫-|
19
口③②① |①②③-|
口⑥⑤④ |④⑤⑥-|
口⑨⑧⑦ |⑦⑧⑨-|
口⑫⑪⑩ |⑩⑪⑫-|
20
①③③① |--①-|
口②②口 |②---|
④口口⑤ |-③--|
口口口口 |④-⑤-|
21
③④⑤⑥ |--①-|
口①①口 |②---|
⑦⑧⑨⑩ |③④⑤⑥|
②口口② |⑦⑧⑨⑩|
22
⑤③③⑥ |--①-|
④①①④ |②--③|
口口口口 |-④--|
口②②口 |⑤-⑥-|
23
⑬⑭⑮⑯ |①②③④|
⑨⑩⑪⑫ |⑤⑥⑦⑧|
⑤⑥⑦⑧ |⑨⑩⑪⑫|
①②③④ |⑬⑭⑮⑯|
24
口口口口 |--①-|
④口口⑤ |②---|
②③③② |-③--|
口①①口 |④-⑤-|
25
③④⑤⑥ |--①-|
口①①口 |②---|
⑦⑧⑨⑩ |③④⑤⑥|
②口口② |⑦⑧⑨⑩|
26
⑤口口⑥ |--①-|
③①①③ |②--③|
口口口口 |-④--|
②④④② |⑤-⑥-|
27
⑨①②⑩ |①-②-③-|
口⑦⑧⑩ |④-⑤-⑥-|
⑤③④⑥ |⑦-⑧-⑨-|
口口口口 |⑩---|
28
⑩⑪⑫口 |①②③-|
⑦⑧⑨口 |④⑤⑥-|
④⑤⑥口 |⑦⑧⑨-|
①②③口 |⑩⑪⑫-|
29
口⑫⑪⑩ |①②③-|
口⑨⑧⑦ |④⑤⑥-|
口⑥⑤④ |⑦⑧⑨-|
口③②① |⑩⑪⑫-|
30
⑩⑪⑫口 |①②③-|
⑦⑧⑨口 |④⑤⑥-|
④⑤⑥口 |⑦⑧⑨-|
①②③口 |⑩⑪⑫-|
31
口⑫⑪⑩ |①②③-|
口⑨⑧⑦ |④⑤⑥-|
口⑥⑤④ |⑦⑧⑨-|
口③②① |⑩⑪⑫-|
32
⑮⑭⑬⑫ |①②③④|
⑪⑩⑨⑧ |⑤-⑥⑦|
⑤⑦⑥口 |⑧⑨⑩⑪|
①②③④ |⑫⑬⑭⑮|
33
⑩⑪⑫口 |①②③-|
⑦⑧⑨口 |④⑤⑥-|
④⑤⑥口 |⑦⑧⑨-|
①②③口 |⑩⑪⑫-|
34
口⑮⑭⑬ |①②③④|
⑫⑪⑩⑨ |⑤⑥⑦⑧|
⑧⑦⑥⑤ |⑨⑩⑪⑫|
④③②① |⑬⑭⑮-|
35
⑪⑫⑬口 |①②③-|
⑦⑧⑨⑩ |④⑤⑥-|
④⑤⑥口 |⑦⑧⑨⑩|
①②③口 |⑪⑫⑬-|
36
口口口口 |①-②-|
口口口口 |③-④-|
⑥④③⑤ |⑤-⑥-|
⑧②①⑦ |⑦-⑧-|
37
口②①口 |①-②-|
口④③口 |③-④-|
口⑥⑤口 |⑤-⑥-|
口⑧⑦口 |⑦-⑧-|
38
②口口① |①-②-|
④口口③ |③-④-|
⑥口口⑤ |⑤-⑥-|
⑧口口⑦ |⑦-⑧-|
39
⑧②②⑧ |①-②-|
⑥④③⑤ |③-④-|
⑥④③⑤ |⑤-⑥-|
⑦①①⑦ |⑦-⑧-|
40
口②①口 |①-②-|
口④③口 |③-④-|
口⑥⑤口 |⑤-⑥-|
口⑧⑦口 |⑦-⑧-|
41
②口口① |①-②-|
④口口③ |③-④-|
⑥口口⑤ |⑤-⑥-|
⑧口口⑦ |⑦-⑧-|
42
口①①口 |①---|
口②②口 |②---|
口③③口 |-③--|
口④④口 |--④-|
43
口口口口 |----|
口口口口 |----|
口口口口 |----|
口口口口 |----|
44
口口口口 |----|
口口口口 |----|
口口口口 |----|
口口口口 |----|
45
①口口① |①---|
②口口② |--②-|
②①①② |----|
③③③③ |③---|
46
口①①口 |--①-|
②口口③ |----|
②①①③ |②---|
口口口口 |③---|
47
③口口③ |①---|
③②②③ |--②-|
口①①口 |----|
②①①② |③---|
48
口口口口 |--①-|
口口口口 |----|
②①①③ |②---|
②①①③ |③---|
49
口①②口 |①-②-|
口③④口 |③-④-|
口⑤⑥口 |⑤-⑥-|
口⑦⑧口 |⑦-⑧-|
50
①口口② |①-②-|
③口口④ |③-④-|
⑤口口⑥ |⑤-⑥-|
⑦口口⑧ |⑦-⑧-|
51
口⑦⑧口 |①-②-|
口⑤⑥口 |③-④-|
口③④口 |⑤-⑥-|
口①②口 |⑦-⑧-|
52
口口口口 |①-②-|
⑤⑤⑥⑥ |③-④-|
③口口④ |⑤---|
①口口② |⑥---|
53
口口口口 |①---|
口口口口 |----|
口口口口 |----|
口①①口 |----|
54
②口口② |①---|
口口口口 |----|
口口口口 |②---|
①口口① |----|
55
口口②口 |①-②-|
口③④口 |③-④-|
⑤①①⑥ |⑤-⑥-|
⑦口口⑧ |⑦-⑧-|
56
①口口② |①-②-|
③口口④ |③-④-|
⑤⑤⑥⑥ |⑤---|
口口口口 |⑥---|
57
⑦⑦②口 |①-②-|
口③④口 |③-④-|
口⑤⑥口 |⑤-⑥-|
口①①口 |⑦---|
58
口口⑦⑦ |①-②-|
②口口③ |③-④-|
④⑥口⑤ |⑤-⑥-|
口口①① |⑦---|
59
⑦⑦口口 |①-②-|
口③②口 |③-④-|
⑤口口④ |⑤-⑥-|
①①口⑥ |⑦---|
60
口口口口 |①-②-|
⑥口①① |③-④-|
口②⑤⑦ |⑤-⑥-|
⑧④③口 |⑦-⑧-|
61
⑤⑥②① |①-②-|
口③⑦④ |③-④-|
⑧③⑦口 |⑤-⑥-|
口口口口 |⑦-⑧-|
62
口口口口 |①-②-|
口③⑦④ |③-④-|
⑧③⑦口 |⑤-⑥-|
⑤⑥②① |⑦-⑧-|
63
③⑧②① |①-②-|
③口口口 |③-④-|
口口⑦④ |⑤-⑥-|
⑤⑥⑦口 |⑦-⑧-|
64
口口口口 |①-②-|
③⑧②① |③-④-|
③口⑦④ |⑤-⑥-|
⑤⑥⑦口 |⑦-⑧-|
65
③口②① |①-②-|
③口口④ |③-④-|
⑤⑥口⑦ |⑤-⑥-|
⑧口口⑦ |⑦-⑧-|
66
口③②① |①-②-|
口③口⑦ |③-④-|
⑤⑥④⑦ |⑤-⑥-|
⑧口口口 |⑦-⑧-|
67
⑧③⑦④ |①-②-|
口③⑦口 |③-④-|
⑤⑥口口 |⑤-⑥-|
口口②① |⑦-⑧-|
68
口口口口 |①-②-③-|
②口口① |④-⑤-⑥-|
口⑦⑦口 |⑦---|
④⑥⑤③ |----|


不確定度: 0

最終更新:2013年10月24日 23:14