キケンな果実
達見 恵 featured by 佐野宏晃

BASIC

Level: 3
BPM: 174
Notes: 242

1
口口口口 |----|
口口口口 |----|
口口口口 |----|
口口口口 |----|
2
口口口口 |----|
口口口口 |----|
口口口口 |----|
口口口口 |----|
3
口④口口 |①---|
口③口口 |②---|
口②口口 |③---|
口①口口 |④---|
4
口口口口 |①---|
口口①① |----|
口口②② |②---|
口口口口 |----|
5
口口④口 |①---|
口口③口 |②---|
口口②口 |③---|
口口①口 |④---|
6
口口口口 |①---|
①①口口 |----|
②②口口 |②---|
口口口口 |----|
7
口④口口 |①---|
口③口口 |②---|
口②口口 |③---|
口①口口 |④---|
8
口口口口 |①---|
口口①① |----|
口口②② |②---|
口口口口 |----|
9
口口④口 |①---|
口口③口 |②---|
口口②口 |③---|
口口①口 |④---|
10
口口口口 |①---|
①①口口 |----|
②②口口 |②---|
口口口口 |----|
11
口口口口 |----|
口口口口 |----|
口口口口 |----|
口口口口 |----|
12
口①①口 |①---|
口口口口 |----|
口口口口 |----|
口口口口 |----|
13
口口口口 |----|
口口口口 |----|
口口口口 |----|
口口口口 |----|
14
口口口口 |①---|
口①①口 |----|
口口口口 |----|
口口口口 |----|
15
口口口口 |----|
口口口口 |----|
口口口口 |----|
口口口口 |----|
16
口口口口 |①---|
口口口口 |----|
口①①口 |----|
口口口口 |----|
17
口口口口 |----|
口口口口 |----|
口口口口 |----|
口口口口 |----|
18
口口口口 |①---|
口口口口 |----|
口口口口 |----|
口①①口 |----|
19
口口口口 |----|
口口口口 |----|
口口口口 |----|
口口口口 |----|
20
口口口④ |①---|
口口③口 |②---|
口②口口 |③---|
①口口口 |④---|
21
口①①口 |①---|
口②②口 |----|
口口口口 |②---|
口口口口 |----|
22
④口口口 |①---|
口③口口 |②---|
口口②口 |③---|
口口口① |④---|
23
口①①口 |①---|
口②②口 |----|
口口口口 |②---|
口口口口 |----|
24
口口口口 |①---|
口口③④ |②---|
①②口口 |③---|
口口口口 |④---|
25
口口口口 |①---|
④③口口 |②---|
口口②① |③---|
口口口口 |④---|
26
口①①口 |①---|
口口口口 |----|
口口口口 |----|
口口口口 |----|
27
口口口口 |①---|
口①①口 |----|
口口口口 |----|
口口口口 |----|
28
口口口口 |①---|
口口口口 |----|
口①①口 |----|
口口口口 |----|
29
口口口口 |①---|
口口①① |----|
口口口口 |----|
口口口口 |----|
30
口口口口 |①---|
口口口口 |----|
口①①口 |----|
口口口口 |----|
31
口口口口 |①---|
①①口口 |----|
口口口口 |----|
口口口口 |----|
32
口口口口 |①---|
口口口口 |----|
口①①口 |----|
口口口口 |----|
33
口口口口 |①---|
口口①① |----|
口口口口 |----|
口口口口 |----|
34
口口口口 |①---|
口口口口 |----|
口①①口 |----|
口口口口 |----|
35
口口口口 |①---|
①①口口 |----|
口口口口 |----|
口口口口 |----|
36
口口口口 |①---|
口②②口 |----|
口①①口 |②---|
口口口口 |----|
37
口口①① |①---|
口口②② |----|
口口口口 |②---|
口口口口 |----|
38
口口口口 |①---|
口②②口 |----|
口①①口 |②---|
口口口口 |----|
39
①①口口 |①---|
②②口口 |----|
口口口口 |②---|
口口口口 |----|
40
口口口口 |①---|
口④③口 |②---|
口②①口 |③---|
口口口口 |④---|
41
④③②① |①---|
口口口口 |②---|
口口口口 |③---|
口口口口 |④---|
42
口口口口 |①---|
①②③④ |②---|
口口口口 |③---|
口口口口 |④---|
43
口口口口 |①---|
口口口口 |----|
口①①口 |----|
口口口口 |----|
44
口口④口 |①---|
口口③口 |②---|
口口②口 |③---|
口①①口 |④---|
45
口口口① |①---|
口口口② |②---|
口口口③ |③---|
口口口④ |④---|
46
口④口口 |①---|
口③口口 |②---|
口②口口 |③---|
口①①口 |④---|
47
①口口口 |①---|
②口口口 |②---|
③口口口 |③---|
④口口口 |④---|
48
口口④口 |①---|
口口③口 |②---|
口口②口 |③---|
口①①口 |④---|
49
口口口① |①---|
口口口② |②---|
口口口③ |③---|
口口口④ |④---|
50
口口口口 |①---|
口口口口 |②---|
④口口口 |③---|
③②①口 |④---|
51
口口口口 |①---|
口口口④ |②---|
口①②③ |③---|
口口口口 |④---|
52
口①①② |①---|
口口口③ |②---|
口口口④ |③---|
口口口口 |④---|
53
②口口口 |①---|
③①①口 |②---|
④口口口 |③---|
口口口口 |④---|
54
口口口口 |①---|
口口口② |②---|
口①①③ |③---|
口口口④ |④---|
55
口口口口 |①---|
②口口口 |②---|
③口口口 |③---|
④①①口 |④---|
56
口口④口 |①---|
口口③口 |②---|
口口②口 |③---|
口①①口 |④---|
57
口①口口 |①---|
口②口口 |②---|
口③口口 |③---|
口④口口 |④---|
58
口口口口 |①---|
口口口口 |----|
①口口① |----|
口口口口 |----|
59
口口口口 |①---|
①口口① |----|
口口口口 |----|
口口口口 |----|
60
口口④③ |①---|
口口②口 |②---|
口①口口 |③---|
口口口口 |④---|
61
②①口口 |①---|
口③口口 |②---|
口口④口 |③---|
口口口口 |④---|
62
口口口口 |①---|
口口口口 |②---|
口口口口 |③---|
④③②① |④---|
63
口口④③ |①---|
口口②口 |②---|
口①口口 |③---|
口口口口 |④---|
64
口①口口 |①---|
口②口口 |②---|
口③口口 |③---|
口④口口 |④---|
65
口口口口 |①---|
口口②② |----|
口口①① |②---|
口口口口 |----|
66
口口①口 |①---|
口口②口 |②---|
口口③口 |③---|
口口④口 |④---|
67
口口口口 |①---|
②②口口 |----|
①①口口 |②---|
口口口口 |----|
68
口①口口 |①---|
口②口口 |②---|
口③口口 |③---|
口④口口 |④---|
69
口口口口 |①---|
口口②② |----|
口口①① |②---|
口口口口 |----|
70
口口①口 |①---|
口口②口 |②---|
口口③口 |③---|
口口④口 |④---|
71
口口口口 |①---|
②②口口 |----|
①①口口 |②---|
口口口口 |----|
72
口①①口 |①---|
口②②口 |--②-|
口③③口 |----|
口口口口 |③---|
73
口口口口 |--①-|
②口口② |----|
②口口② |----|
口①①口 |--②-|


不確定度: 0

最終更新:2013年10月24日 23:11