キケンな果実
達見 恵 featured by 佐野宏晃

ADVANCED

Level: 7
BPM: 174
Notes: 372

1
口口口口 |----|
口口口口 |----|
口口口口 |----|
口口口口 |----|
2
口口口口 |----|
口口口口 |----|
口口口口 |----|
口口口口 |----|
3
口口口口 |①---|
口口口口 |②---|
口③④口 |③---|
口①②口 |④---|
4
①①②② |①---|
口口口口 |----|
口口口口 |②---|
口口口口 |----|
5
口口口口 |①---|
口口口口 |②---|
口④③口 |③---|
口②①口 |④---|
6
②②①① |①---|
口口口口 |----|
口口口口 |②---|
口口口口 |----|
7
口口口口 |①---|
口口口口 |②---|
口③④口 |③---|
口①②口 |④---|
8
①①②② |①---|
口口口口 |----|
口口口口 |②---|
口口口口 |----|
9
口口口口 |①---|
口口口口 |②---|
口④③口 |③---|
口②①口 |④---|
10
口口口口 |①---|
②口口① |----|
②口口① |②---|
口口口口 |----|
11
口口口口 |----|
口口口口 |----|
口口①口 |----|
口口口口 |--①-|
12
口③口口 |①---|
①口②口 |----|
口口口口 |②---|
口口口口 |③---|
13
口口口口 |①---|
口口口口 |----|
口①口③ |②---|
口口口② |③---|
14
口口③口 |①---|
口②口① |----|
④口口口 |--②-|
口口口口 |③-④-|
15
口②口口 |----|
口口①口 |----|
口口口口 |----|
口口口口 |①-②-|
16
④口③口 |①---|
口②口口 |②-③-|
口口口① |----|
口口口口 |④---|
17
口口口口 |①---|
口口口② |----|
①口口口 |②---|
口口口③ |③---|
18
口③口口 |①---|
口口④口 |----|
②口口口 |②---|
①口口口 |③-④-|
19
口口口口 |----|
口口口口 |----|
口口①口 |----|
口口口口 |--①-|
20
③③口口 |①---|
①①②② |----|
口口口口 |②---|
口口口口 |③---|
21
口口口口 |①---|
口口口口 |----|
①①③③ |②---|
口口②② |③---|
22
口口③口 |①---|
口②①① |----|
④④口口 |--②-|
口口口口 |③-④-|
23
口②口口 |----|
口口①口 |----|
口口口口 |----|
口口口口 |①-②-|
24
④④③③ |①---|
口②口口 |②-③-|
口口①① |----|
口口口口 |④---|
25
口口口口 |①---|
口口②② |----|
①①口口 |②---|
口口③③ |③---|
26
口③口口 |①---|
口口④④ |----|
②②口口 |②---|
①①口口 |③-④-|
27
口口口口 |----|
口口口口 |----|
口口口口 |----|
口口口口 |----|
28
口②②口 |①---|
口口口口 |----|
口口口口 |②---|
口①①口 |----|
29
①口口① |①---|
口口口口 |----|
口口③口 |②---|
②口口② |--③-|
30
①①③③ |①---|
口口口口 |----|
口②口口 |--②-|
口口口口 |③---|
31
口口口口 |①---|
口口③③ |----|
②②口口 |②---|
①口口① |③---|
32
①①③③ |①---|
口口口口 |②-③-|
口②口口
口口口口

④④口口
口口口口
口口口口 |----|
口口口口 |④---|
33
口口口口 |①---|
①①口口 |----|
②②口口 |②---|
口口口口 |----|
34
③③口口 |①---|
口口口口 |----|
口口②口 |--②-|
①①口口 |③---|
35
口口口口 |①---|
口口口口 |----|
口口口口 |----|
①口口① |----|
36
口②②口 |①---|
口口口口 |----|
口口口口 |②---|
口①①口 |----|
37
①口口① |①---|
口口口口 |----|
口口口口 |②---|
②口口② |----|
38
①①③③ |①---|
口口口口 |----|
口②口口 |--②-|
口口口口 |③---|
39
口口口口 |①---|
口口③③ |----|
②②口口 |②---|
①口口① |③---|
40
①①③③ |①---|
口口口口 |②-③-|
口②口口
口口口口

口④口口
口口⑤口
口口口口 |----|
口口口口 |④-⑤-|
41
口口口口 |①---|
口口口口 |--②-|
①①②② |----|
③③口口 |③---|
42
口④口口 |①---|
①①③口 |----|
口②口口 |--②-|
口口口口 |③-④-|
43
①口口① |①--②|
②口口② |--③-|
③口口③ |----|
口口口口 |----|
44
①①口⑥ |①-②-|
⑦③口口 |③-④-|
⑤口⑧② |⑤-⑥-|
口口④口 |⑦-⑧-|
45
口口②口 |①-②-|
口③口口 |③-④-|
口口口④
口①口口

⑤口口口
口口⑥口
口口口口 |⑤-⑥-|
⑦⑦口口 |⑦---|
46
④口①① |①-②-|
口⑥口③ |③-④-|
口②口⑦ |⑤-⑥-|
⑧口⑤口 |⑦-⑧-|
47
口口⑦⑦ |①-②-|
口⑥①③ |③-④-|
④口口口 |⑤-⑥-|
口②口⑤ |⑦---|
48
⑦口⑥口 |①-②-|
③口口④ |③-④-|
口⑤②口 |⑤-⑥-|
①①口⑧ |⑦-⑧-|
49
口口口④ |①-②-|
⑦③口口 |③-④-|
①⑤⑧口 |⑤-⑥-|
口口②⑥ |⑦-⑧-|
50
口口④④ |①---|
③③口口 |----|
口口②② |--②-|
①①口口 |③-④-|
51
口口口口 |①---|
口④口口 |----|
②口口③ |--②-|
①①口口 |③-④-|
52
口⑥①① |①-②-|
④口口⑦ |③-④-|
口②⑤口 |⑤-⑥-|
口⑧口③ |⑦-⑧-|
53
口口①口 |①-②-|
口④口⑤ |③-④-|
⑥口③口 |⑤-⑥-|
②口⑦⑦ |⑦---|
54
①①⑥口 |①-②-|
口⑤②口 |③-④-|
口⑦口④ |⑤-⑥-|
③口口⑧ |⑦-⑧-|
55
口口口② |①-②-|
①口口④ |③-④-|
口口口口
口③口口

⑦口⑧⑧
口口口口
口⑤口口 |⑤-⑥-|
口口⑥口 |⑦-⑧-|
56
口口口口 |①-②-|
②⑥口④ |--③-|
①⑤口③ |④---|
口口口口 |⑤-⑥-|
57
④口⑤口 |--①-|
②⑥口③ |②-③-|
口口①口 |④--⑤|
口口口口 |--⑥-|
58
口②口口 |----|
口口③③ |----|
口口①口 |--①-|
口口口口 |②-③-|
59
口口口口 |----|
口口口② |----|
①口口口 |----|
口口口口 |①-②-|
60
①①口⑥ |①-②-|
口⑦④口 |③-④-|
⑤口口② |⑤-⑥-|
口③口⑧ |⑦-⑧-|
61
③口⑧口 |①-②-|
口⑦④② |③-④-|
⑤①口口 |⑤-⑥-|
口口口⑥ |⑦-⑧-|
62
口口口口 |①-②-|
③口口口 |③-④-|
口①口④
口口②口

口⑤口⑥
口口口口
口⑦口口 |⑤-⑥-|
口口口⑧ |⑦-⑧-|
63
③口口口 |①-②-|
①口④口 |③-④-|
口口②口
口口口口

口口⑧口
⑦口口口
⑤口口口 |⑤-⑥-|
口口口⑥ |⑦-⑧-|
64
口口口口 |①---|
口口口口 |②---|
口③④口 |③---|
口①②口 |④---|
65
①①②② |①---|
口口口口 |----|
口口口口 |②---|
口口口口 |----|
66
口口口口 |①---|
口口口口 |②---|
口④③口 |③---|
口②①口 |④---|
67
②②①① |①---|
口口口口 |----|
口口口口 |②---|
口口口口 |----|
68
口口口口 |①---|
口口口口 |②---|
口③④口 |③---|
口①②口 |④---|
69
①①②② |①---|
口口口口 |----|
口口口口 |②---|
口口口口 |----|
70
口口口口 |①---|
口口口口 |②---|
口④③口 |③---|
口②①口 |④---|
71
口口口口 |①---|
②口口① |----|
②口口① |②---|
口口口口 |----|
72
口口①① |①---|
②②口口 |--②-|
口口③③ |----|
口口口口 |③---|
73
②②②② |--①-|
口口口口 |----|
口口口口 |----|
①①口口 |--②-|


不確定度: 0

最終更新:2013年10月24日 23:11