heron
S-C-U

BASIC

Level: 4
BPM: 182
Notes: 259

1
口口口口 |----|
口口口口 |----|
口口口口 |----|
口口口口 |----|
2
口口口口 |①---|
口②①口 |----|
口口口口 |②---|
口口口口 |----|
3
口口口口 |①---|
口口口口 |②-③-|
口②①③
口口口口

口口口口
口口口④
口口⑤口 |--④-|
口口口口 |--⑤-|
4
口口口口 |----|
①②③口 |①---|
口口口口 |②---|
口口口口 |③---|
5
口口口口 |①---|
口口口口 |②-③-|
③①②口
口口口口

口口口口
④口口口
口⑤口口 |--④-|
口口口口 |--⑤-|
6
口口口口 |----|
口③②① |①---|
口口口口 |②---|
口口口口 |③---|
7
口口口口 |①---|
口口口口 |②-③-|
口口口口
口②①③

口口口口
口口口口
口口口④ |--④-|
口口⑤口 |--⑤-|
8
口口口口 |----|
口口口口 |①---|
①②③口 |②---|
口口口口 |③---|
9
口口口口 |①---|
口口口口 |②-③-|
④口口口 |--④-|
③①②口 |----|
10
口①①口 |①---|
口口口口 |----|
口口口口 |----|
口口口口 |----|
11
口口口口 |①---|
口口口口 |②---|
口口④③ |③---|
口口②① |④---|
12
口口④③ |①---|
口口②① |②---|
口口口口 |③---|
口口口口 |④---|
13
口口口口 |①---|
口口口口 |②---|
③④口口 |③---|
①②口口 |④---|
14
③④口口 |①---|
①②口口 |②---|
口口口口 |③---|
口口口口 |④---|
15
口口口口 |①---|
口口口口 |----|
口①①口 |----|
口口口口 |----|
16
口口口口 |----|
口口口② |--①-|
口口口① |--②-|
口口口口 |----|
17
①②③④ |①---|
口口口口 |②---|
口口口口 |③---|
口口口口 |④---|
18
口口口口 |①---|
①②③④ |②---|
口口口口 |③---|
口口口口 |④---|
19
口口口口 |①---|
口口口口 |②---|
③④口口 |③---|
①②口口 |④---|
20
③④口口 |①---|
①②口口 |②---|
口口口口 |③---|
口口口口 |④---|
21
口口口口 |①---|
口口口口 |②---|
口口④③ |③---|
口口②① |④---|
22
口口④③ |①---|
口口②① |②---|
口口口口 |③---|
口口口口 |④---|
23
口口口口 |①---|
口口口口 |----|
口①①口 |----|
口口口口 |----|
24
口口口口 |----|
②口口口 |--①-|
①口口口 |--②-|
口口口口 |----|
25
口口口口 |①---|
口口③口 |--②-|
口②口口 |----|
口口口① |③---|
26
①口口口 |①---|
口口口口 |----|
口口口口 |----|
口口口口 |----|
27
口口口口 |①---|
④口③① |②---|
②口口口 |③---|
口口口口 |④---|
28
口口口口 |①---|
④口口口 |②---|
②口③① |③---|
口口口口 |④---|
29
口口口口 |①---|
④口③① |②---|
②口口口 |③---|
口口口口 |④---|
30
口口口口 |①---|
②口口口 |----|
口口口口 |----|
口口①① |②---|
31
口口口口 |①---|
④口③① |②---|
②口口口 |③---|
口口口口 |④---|
32
口口口口 |①---|
④口口口 |②---|
②口③① |③---|
口口口口 |④---|
33
口口口口 |①---|
口口口口 |②---|
④口③③ |③---|
②口①① |④---|
34
④口③③ |①---|
②口①① |②---|
口口口口 |③---|
口口口口 |④---|
35
口口口口 |①---|
口口口④ |②---|
③口口② |③---|
①①口口 |④---|
36
口口口口 |①---|
口口口④ |②---|
口③口② |③---|
口①口口 |④---|
37
③口口口 |①---|
①口口④ |②---|
口口口② |③---|
口口口口 |④---|
38
③③口口 |①---|
口①口口 |②---|
口口口② |③---|
口口口口 |----|
39
口口口口 |①---|
口口口口 |②---|
③口口④ |③---|
①口口② |④---|
40
口③④口 |①---|
口①②口 |②---|
口口口口 |③---|
口口口口 |④---|
41
口口⑥⑥ |①--②|
⑤⑤④④ |--③-|
③③②② |-④--|
①①口口 |⑤--⑥|
42
口口口口 |----|
口口口口 |----|
口口口口 |----|
口口口口 |----|
43
口口口口 |①---|
④口口口 |②---|
②口口③ |③---|
口口口① |④---|
44
口口口③ |①---|
口④口① |②---|
口②口口 |③---|
口口口口 |④---|
45
口①①口 |①---|
②口口② |--②-|
③口口③ |--③-|
口④④口 |--④-|
46
口口口口 |----|
口口口口 |----|
口口口口 |----|
口口①口 |①---|
47
口口口口 |①---|
口口口④ |②---|
③口口② |③---|
①口口口 |④---|
48
③口口口 |①---|
①口④口 |②---|
口口②口 |③---|
口口口口 |④---|
49
口①口口 |①---|
口口口② |--②-|
口③口口 |----|
口口口口 |③---|
50
口口口口 |----|
口口口口 |①---|
口③口口 |②---|
口②①口 |③---|
51
口口口口 |①---|
④口口口 |②---|
②口口③ |③---|
口口口① |④---|
52
口口口③ |①---|
口④口① |②---|
口②口口 |③---|
口口口口 |④---|
53
口①①口 |①---|
②口口② |--②-|
口③③口 |--③-|
④口口④ |--④-|
54
口口口口 |----|
口口口口 |----|
口口口口 |----|
口口①口 |①---|
55
口口口口 |①---|
口口口④ |②---|
③口口② |③---|
①口口口 |④---|
56
③口口口 |①---|
①口④口 |②---|
口口②口 |③---|
口口口口 |④---|
57
口①口口 |①---|
口口口② |--②-|
口口口口 |----|
③口口口 |③---|
58
口口口口 |----|
口口③口 |①---|
口口②口 |②---|
口口①口 |③---|
59
①①口口 |①---|
②口口口 |②---|
③口口口 |③---|
④口口口 |④---|
60
口口口① |①---|
口口口② |②---|
口口口③ |③---|
口口口④ |④---|
61
①①口口 |①---|
②口口口 |②---|
③口口口 |③---|
④口口口 |④---|
62
口口①① |①---|
②②口口 |②---|
口口③③ |③---|
④④口口 |④---|
63
口④口口 |①---|
口口③口 |②---|
口②口口 |③---|
口口①口 |④---|
64
④口口口 |①---|
口口口③ |②---|
②口口口 |③---|
口口①① |④---|
65
⑤口口⑤ |--①-|
④③③④ |-②--|
口②②口 |③--④|
口①①口 |--⑤-|


不確定度: 0

最終更新:2013年10月24日 23:10