heron
S-C-U

ADVANCED

Level: 7
BPM: 182
Notes: 429

1
口口口口 |----|
口口口口 |----|
口口口口 |----|
口口口口 |----|
2
②口口⑦ |①-②-|
口④⑤口 |③-④-|
口⑥③口 |⑤-⑥-|
⑧口口① |⑦-⑧-|
3
口口口口 |①---|
口口口口 |②-③-|
②口口③
口口①口

④口口口
口口口口
口口口口 |--④-|
口口⑤口 |--⑤-|
4
⑤口口口 |--①-|
口③口④ |②---|
①口口② |③-④-|
口口口口 |⑤---|
5
口口口口 |①---|
口口口口 |②-③-|
③口口②
口①口口

口口口④
口口口口
口口口口 |--④-|
口⑤口口 |--⑤-|
6
口口口⑤ |--①-|
④口③口 |②---|
②口口① |③-④-|
口口口口 |⑤---|
7
口口口口 |①---|
口口口口 |②-③-|
③口口②
口口①口

口口口④
口口口口
口口口口 |--④-|
口口⑤口 |--⑤-|
8
口口口⑤ |--①-|
④口口口 |②---|
②口③① |③-④-|
口口口口 |⑤---|
9
口口口口 |①---|
④口口⑤ |②-③-|
②口口③ |--④-|
口①口口 |⑤---|
10
①①口口 |①---|
口口口口 |----|
口口口口 |----|
口口口口 |----|
11
口口口⑦ |①-②-|
口⑥①口 |③-④-|
口②⑤口 |⑤-⑥-|
口④③口 |--⑦-|
12
口口口口 |--①-|
②口口① |②---|
口口口④ |③---|
口口口③ |④---|
13
⑦口口口 |①-②-|
口①⑥口 |③-④-|
口⑤②口 |⑤-⑥-|
口③④口 |--⑦-|
14
口口口口 |--①-|
①口口② |②---|
④口口口 |③---|
③口口口 |④---|
15
⑤④③② |①---|
①口口⑥ |②-③-|
口口口口 |④-⑤-|
口口口口 |--⑥-|
16
口口口口 |--①-|
①③④口 |--②-|
口口②口 |--③-|
口口口口 |④---|
17
口⑥⑤④ |①---|
口口口③ |②-③-|
口口口② |--④-|
①口口口 |⑤-⑥-|
18
①口口口 |①-②-|
④③②口 |③-④-|
⑥口口⑤ |⑤-⑥-|
⑧口口⑦ |⑦-⑧-|
19
口口⑦⑦ |①-②-|
口⑥①① |③-④-|
口②⑤口 |⑤-⑥-|
口④③口 |--⑦-|
20
口口口口 |--①-|
②口口① |②---|
口口口④ |③---|
口口口③ |④---|
21
⑦⑦口口 |①-②-|
口①⑥口 |③-④-|
口⑤②口 |⑤-⑥-|
口③④口 |--⑦-|
22
口口口口 |--①-|
①口口② |②---|
④口口口 |③---|
③口口口 |④---|
23
⑤④③② |①---|
①口口⑥ |②-③-|
口口口口 |④-⑤-|
口口口口 |--⑥-|
24
口口口口 |--①-|
①③④口 |--②-|
口口②口 |--③-|
口口口口 |④---|
25
口口口口 |①---|
③③口口 |--②-|
口口②② |----|
①①口口 |③---|
26
口口①① |①---|
口⑦⑥口 |②-③-|
口⑤④口 |④-⑤-|
口③②口 |⑥-⑦-|
27
口口①① |①--②|
口口口② |--③-|
口口⑥③ |--④-|
口⑤④口 |⑤-⑥-|
28
①①口口 |①--②|
②口口口 |--③-|
③⑥口口 |--④-|
口④⑤口 |⑤-⑥-|
29
口③②① |①--②|
④⑤⑥口 |--③-|
口口口口 |④--⑤|
口口口口 |--⑥-|
30
口口口口 |①---|
口口口口 |----|
口口口口 |----|
①①②口 |--②-|
31
④口口口 |①---|
②③口口 |--②-|
口口①口 |③---|
口口口口 |--④-|
32
口①⑧口 |①-②-|
口⑦②口 |③-④-|
口③⑥口 |⑤-⑥-|
口⑤④口 |⑦-⑧-|
33
①①口口 |①---|
②口③③ |②---|
口口口④ |③---|
口口口口 |④---|
34
口口口口 |①---|
口口口口 |②---|
①①口④ |③---|
②口③③ |④---|
35
①①口口 |①--②|
②口口口 |--③-|
③⑥口口 |--④-|
口④⑤口 |⑤-⑥-|
36
口口①① |①--②|
口口口② |--③-|
口口⑥③ |--④-|
口⑤④口 |⑤-⑥-|
37
①②③口 |①--②|
①口口口 |--③-|
口⑥口口 |--④-|
口④⑤口 |⑤-⑥-|
38
口口口① |①--②|
③口②① |--③-|
口口口口 |④---|
口⑤口④ |--⑤-|
39
口⑥⑦⑤ |①-②-|
口④③⑤ |③-④-|
口②①口 |⑤-⑥-|
口口⑧口 |⑦-⑧-|
40
⑤⑧⑦⑥ |①-②-|
⑤③④口 |③-④-|
口①②口 |⑤-⑥-|
口口口口 |⑦-⑧-|
41
⑥⑥⑥⑥ |①--②|
④⑤⑤④ |--③-|
③口口③ |-④--|
①②②① |⑤--⑥|
42
口口口口 |----|
口⑥⑤口 |①-②-|
口④③口 |③-④-|
②口口① |⑤-⑥-|
43
④口①① |①-②-|
③口口口 |③-④-|
②口口口
口口口口

口口口⑥
口口口⑥
口口口口 |--⑤-|
口口⑤口 |--⑥-|
44
口口①口 |----|
口③①口 |①---|
口②口口 |②-③-|
口口口口 |----|
45
④④④④ |①---|
②口口③ |--②-|
②口口③ |--③-|
口①①口 |--④-|
46
口口口口 |----|
口口口口 |①---|
①②③口 |②---|
口口口口 |③---|
47
①①口口 |①-②-|
口口口④ |③-④-|
口口口③
口口口②

⑥口口口
⑥口口口
口口口口 |--⑤-|
口⑤口口 |--⑥-|
48
口①口口 |----|
口①口口 |①---|
口口③口 |②-③-|
口口②口 |----|
49
口口口口 |①-②-|
①②③口 |③-④-|
⑧⑥⑤④ |⑤-⑥-|
⑦口口口 |⑦-⑧-|
50
口口⑦① |--①-|
口⑥口② |②-③-|
口口⑤③ |④-⑤-|
口④口口 |⑥-⑦-|
51
①①口⑥ |①-②-|
口口④⑥ |③-④-|
口口口③ |--⑤-|
⑤口②口 |--⑥-|
52
口口①口 |----|
口③①口 |①---|
口②口口 |②-③-|
口口口口 |----|
53
④④④④ |①---|
②口口③ |--②-|
口②③口 |--③-|
①①①① |--④-|
54
口口口口 |----|
口口①口 |①---|
口②口口 |②---|
口口③口 |③---|
55
口口①① |①-②-|
④口口口 |③-④-|
③口口口
②口口口

口口口⑥
口口口⑥
口口口口 |--⑤-|
口口口⑤ |--⑥-|
56
口口①口 |----|
口口①口 |①---|
口③口口 |②-③-|
口②口口 |----|
57
口口口口 |①-②-|
口③②① |③-④-|
④⑤⑥⑧ |⑤-⑥-|
口口口⑦ |⑦-⑧-|
58
①⑦口口 |--①-|
②口⑥口 |②-③-|
③⑤口口 |④-⑤-|
口口④口 |⑥-⑦-|
59
口⑧口① |①-②-|
④口⑦① |③-④-|
口⑥⑤口 |⑤-⑥-|
②口口③ |⑦-⑧-|
60
⑧口口① |①-②-|
口④⑦口 |③-④-|
⑥口口⑤ |⑤-⑥-|
口②③口 |⑦-⑧-|
61
口②口① |①-②-|
口口口① |③-④-|
口④⑤口 |⑤-⑥-|
⑥⑧⑦③ |⑦-⑧-|
62
①①①① |①---|
②②②② |②---|
③③③③ |③---|
④④④④ |④---|
63
①①口⑧ |①-②-|
③口口② |③-④-|
口⑤④⑥ |⑤-⑥-|
⑦口口口 |⑦-⑧-|
64
①①口⑧ |①-②-|
口③②口 |③-④-|
⑤口④口 |⑤-⑥-|
口⑦⑥口 |⑦-⑧-|
65
口①③口 |--①-|
①③口口 |-②--|
④②③⑤ |③--④|
②④⑤口 |--⑤-|


不確定度: 0

最終更新:2013年10月24日 23:10