New Gravity
Starving Trancer

ADVANCED

Level: 7
BPM: 154
Notes: 507

1
口口口口 |----|
口口口口 |----|
口口口口 |----|
口口口口 |----|
2
口③①口 |①---|
⑤口口口 |②-③-|
口④②口 |--④-|
口口口口 |--⑤-|
3
③口口口 |--①-|
口口口口 |--②-|
口②口口 |--③-|
口口口① |----|
4
口③①口 |①---|
口口口⑤ |②-③-|
口④②口 |--④-|
口口口口 |--⑤-|
5
④口口口 |--①-|
③口口口 |--②-|
口口②口 |--③-|
①口口口 |--④-|
6
口口①口 |①---|
口③口⑤ |②-③-|
口口②口 |--④-|
口④口口 |--⑤-|
7
③④口口 |--①-|
⑤口口口 |--②-|
口口②口 |--③-|
①口口口 |④-⑤-|
8
口口口口 |①---|
⑤①④口 |--②③|
口③口② |④---|
口口口口 |--⑤-|
9
口口口口 |--①-|
口口③④ |--②-|
口②⑤⑥ |③-④-|
①口口口 |⑤-⑥-|
10
口口口口 |①---|
口口口口 |----|
口口口口 |----|
口①①口 |----|
11
口口口口 |①---|
口口口口 |----|
③①①③ |②---|
②口口② |③---|
12
口③①口 |①---|
⑤口口⑤ |②-③-|
口④②口 |--④-|
口口口口 |--⑤-|
13
③③口口 |--①-|
口口口口 |--②-|
口②②口 |--③-|
①口口① |----|
14
口③①口 |①---|
⑤口口⑤ |②-③-|
口④②口 |--④-|
口口口口 |--⑤-|
15
④④口口 |--①-|
③③口口 |--②-|
口②②口 |--③-|
①口口① |--④-|
16
口口①口 |①---|
⑤③口⑤ |②-③-|
口口②口 |--④-|
口④口口 |--⑤-|
17
③④口口 |--①-|
⑤口口口 |--②-|
口②②口 |--③-|
①口口① |④-⑤-|
18
口口口口 |①---|
⑤①④口 |--②③|
口③口② |④---|
口口口口 |--⑤-|
19
口口口口 |--①-|
口口③④ |--②-|
口②⑤⑥ |③-④-|
①口口口 |⑤-⑥-|
20
口口口口 |①---|
①①口口 |②---|
口口③④ |③---|
口口②① |④---|
21
口口口口 |①---|
⑦⑦口口 |②-③-|
③③④⑥ |④-⑤-|
⑤⑤②① |⑥-⑦-|
22
口口口口 |①---|
口口口口 |②---|
口口③④ |③---|
口口②① |④---|
23
口口⑥口 |①---|
③③④口 |②---|
⑥⑥③口 |③-④-|
⑤⑤②① |⑤-⑥-|
24
口口④① |①---|
口口③② |②---|
口口口口 |③---|
口口口口 |④---|
25
口口口① |①---|
④⑥口② |②---|
口口③⑤ |③--④|
口口口口 |⑤-⑥-|
26
①口口口 |①---|
③口口口 |②-③④|
④口⑤⑥ |⑤---|
⑤口②① |⑥---|
27
口口口口 |①---|
④⑤口口 |②---|
口③口口 |③--④|
口口②① |--⑤-|
28
①口②口 |①-②-|
⑤口⑥口 |③-④-|
③③口④ |⑤-⑥-|
⑦⑦口⑧ |⑦-⑧-|
29
口口口口 |①-②-|
口①口② |③-④-|
③③口④
口口口口

⑤口⑥口
⑦⑦口口
口口口口 |⑤-⑥-|
口口口⑧ |⑦-⑧-|
30
口①④口 |①-②-|
口口口口 |③-④-|
口口②口
③③口口

⑦⑦口口
口⑤口⑧
口口口口 |⑤-⑥-|
口口⑥口 |⑦-⑧-|
31
口口④口 |①-②-|
口口口口 |③-④-|
③③②口
口①口口

⑤口口口
⑦⑦口口
口口⑧口 |⑤-⑥-|
口口口⑥ |⑦-⑧-|
32
口口④④ |①-②-|
口口口② |③-④-|
③口口口
①①口口

⑤口口口
口口⑧口
口口口口 |⑤-⑥-|
⑦口⑥⑥ |⑦-⑧-|
33
口口口口 |①-②-|
①①口② |③-④-|
口口④④
口③口口

⑤口⑥⑥
⑦口口⑧
口口口口 |⑤-⑥-|
口口口口 |⑦-⑧-|
34
⑦⑦口⑧ |①-②-|
⑤⑤口⑥ |③-④-|
③③口④ |⑤-⑥-|
①①口② |⑦-⑧-|
35
⑬⑭⑯⑮ |①②③④|
⑨⑩⑫⑪ |⑤⑥⑦⑧|
⑤⑥⑧⑦ |⑨⑩⑪⑫|
①②④③ |⑬⑭⑮⑯|
36
口口口口 |①---|
口口口口 |②---|
③口②③ |③-④-|
①④④口 |----|
37
口③①① |①---|
口口口口 |②-③-|
口口②口
口口口口

⑦口口⑦
口口⑥④
口⑤口口 |④-⑤-|
口口口口 |⑥-⑦-|
38
③③口口 |--①-|
口②口口 |--②-|
口口②口 |--③-|
①口口① |----|
39
口③①① |①---|
口口口口 |②-③-|
口口②口
口口口口

⑦口口⑦
口口⑥④
口⑤口口 |④-⑤-|
口口口口 |⑥-⑦-|
40
④④口口 |--①-|
③③口口 |--②-|
口②②口 |--③-|
①口口① |--④-|
41
口口①① |①---|
口③口口 |②-③-|
口口②口
口口口口

⑦口口⑦
口口⑥④
口口口口 |④-⑤-|
口⑤口口 |⑥-⑦-|
42
③④口口 |--①-|
⑤口口口 |--②-|
口②②口 |--③-|
①口口① |④-⑤-|
43
口口口口 |①---|
⑤①④口 |--②③|
口③口② |④---|
口口口口 |--⑤-|
44
口口⑤⑤ |①-②③|
⑦⑦口⑥ |--④-|
⑧④口③ |⑤-⑥-|
②口①口 |⑦-⑧-|
45
口口口口 |----|
口口口口 |----|
口口口口 |----|
口口口口 |----|
46
①①⑧口 |①-②-|
③③口⑥ |③-④-|
⑤⑤④口 |⑤-⑥-|
⑦⑦口② |⑦-⑧-|
47
①①⑧口 |①-②-|
③③口⑥ |③-④-|
⑤⑤④口 |⑤-⑥-|
⑦⑦口② |⑦-⑧-|
48
①③口⑧ |①-②-|
①③⑥口 |③-④-|
⑤⑦口④ |⑤-⑥-|
⑤⑦②口 |⑦-⑧-|
49
①③②口 |①-②-|
①③口④ |③-④-|
⑤⑦⑥口 |⑤-⑥-|
⑤⑦口⑧ |⑦-⑧-|
50
①①口④ |①--②|
⑤⑤③口 |--③④|
②⑥口⑧ |⑤--⑥|
②⑥⑦口 |--⑦⑧|
51
①①③口 |①--②|
⑤⑤口④ |--③④|
②⑥⑦口 |⑤--⑥|
②⑥口⑧ |--⑦⑧|
52
①①②④ |①-②-|
③③②④ |③-④-|
⑤⑤⑥⑧ |⑤-⑥-|
⑦⑦⑥⑧ |⑦-⑧-|
53
①①③③ |①-②-|
②②④④ |③-④-|
⑤⑤⑦⑦ |⑤-⑥-|
⑥⑥⑧⑧ |⑦-⑧-|
54
⑦口口① |①---|
②②②② |②-③-|
口口⑥④ |④-⑤-|
③⑤口⑦ |⑥-⑦-|
55
③③口① |--①-|
口②口③ |--②-|
口口口口 |--③-|
①口②口 |----|
56
⑦③①① |①---|
口口⑥④ |②-③-|
口⑤②口 |④-⑤-|
口口口⑦ |⑥-⑦-|
57
④④口① |--①-|
③③口④ |--②-|
口②②③ |--③-|
①口口口 |--④-|
58
口口①① |①---|
口③口口 |②-③-|
口口②口
口口口口

口口口⑦
口口⑥口
口口口④ |④-⑤-|
⑦⑤口口 |⑥-⑦-|
59
①口口口 |--①-|
口口口② |--②-|
口②口口
口口口①

④口⑤口
口口口口
③口口口 |--③-|
口口③口 |--④⑤|
60
口口⑥口 |①---|
⑦①⑤口 |②-③④|
口③口④ |⑤---|
口②口口 |⑥-⑦-|
61
口口⑤⑤ |①-②③|
⑦⑦口⑥ |--④-|
⑧④口③ |⑤-⑥-|
②口①口 |⑦-⑧-|
62
口③口口 |①---|
⑤口①口 |②-③-|
口④口口 |--④-|
口口②口 |--⑤-|
63
③④口口 |--①-|
⑤口口口 |--②-|
口②口口 |--③-|
口口口① |④-⑤-|
64
口口口口 |①---|
⑤①④口 |--②③|
口③口② |④---|
口口口口 |--⑤-|
65
口口口口 |--①-|
口口③④ |--②-|
口②⑤⑥ |③-④-|
①口口口 |⑤-⑥-|
66
口口口口 |①---|
口口口口 |----|
口口口口 |----|
口①①口 |----|


不確定度: 0

最終更新:2013年10月24日 23:08