Fly with me
TAG

BASIC

Level: 5
BPM: 177
Notes: 255

1
口口口口 |------|
口口口口 |------|
口口口口 |------|
口口口口 |------|
2
口口口口 |①-----|
口口口① |------|
口口口① |------|
口口口口 |------|
3
口口口口 |①-----|
口口①口 |------|
口口①口 |------|
口口口口 |------|
4
口口口口 |①-----|
口①口口 |------|
口①口口 |------|
口口口口 |------|
5
口口口口 |①-----|
①口口口 |------|
①口口口 |------|
口口口口 |------|
6
口口①① |①-----|
口口口口 |------|
口口口口 |------|
口口口口 |------|
7
①①口口 |①-----|
口口口口 |------|
口口口口 |------|
口口口口 |------|
8
口口口口 |①-----|
口口口口 |------|
口口口口 |------|
口口①① |------|
9
口口口口 |①-----|
口③②口 |------|
口口口口 |②-----|
①①口口 |③-----|
10
口口④③ |①-----|
口口口② |②-----|
口口口① |③-----|
口口口口 |④-----|
11
③④口口 |①-----|
②口口口 |②-----|
①口口口 |③-----|
口口口口 |④-----|
12
口口④③ |①-----|
口口口② |②-----|
口口口① |③-----|
口口口口 |④-----|
13
③④口口 |①-----|
②口口口 |②-----|
①口口口 |③-----|
口口口口 |④-----|
14
口口口口 |①-----|
口口口① |②-----|
口口口② |③-----|
口口④③ |④-----|
15
口口口口 |①-----|
①口口口 |②-----|
②口口口 |③-----|
③④口口 |④-----|
16
口口口口 |①-----|
口口口① |②-----|
口口口② |③-----|
口口④③ |④-----|
17
口口口口 |①-----|
①口口口 |②-----|
②口口口 |③-----|
③④口口 |④-----|
18
口口口口 |①-----|
口②②口 |------|
口①①口 |②-----|
口口口口 |------|
19
口口口口 |①-----|
②口口① |------|
②口口① |②-----|
口口口口 |------|
20
口口口口 |①-----|
口口②口 |------|
口口①口 |②-----|
口口口口 |------|
21
口①②② |①-----|
口口口口 |------|
口口口口 |②-----|
口口口口 |------|
22
口口口口 |①-----|
口①②口 |------|
口口口口 |②-----|
口口口口 |------|
23
口口口口 |①-----|
口口口口 |------|
口①②② |②-----|
口口口口 |------|
24
口口口口 |①-----|
口口口口 |------|
口口口口 |②-----|
口①②口 |------|
25
口口口口 |①-----|
口②②口 |------|
口①口口 |②-----|
口口口口 |------|
26
口①②口 |①-----|
口口口口 |------|
口口口口 |②-----|
口口口口 |------|
27
口口口口 |①-----|
口①②口 |------|
口口口口 |②-----|
口口口口 |------|
28
口口口口 |①-----|
口口口口 |②-----|
①②③④ |③-----|
口口口口 |④-----|
29
③③口口 |①-----|
口口②① |②-----|
口口口口 |③-----|
口口口口 |------|
30
口口口口 |①-----|
口口口口 |②-----|
①②③④ |③-----|
口口口口 |④-----|
31
③③口口 |①-----|
口口②① |②-----|
口口口口 |③-----|
口口口口 |------|
32
口口口口 |①-----|
口③④口 |②-----|
口①②口 |③-----|
口口口口 |④-----|
33
口①②② |①-----|
口口口口 |------|
口口口口 |②-----|
口口口口 |------|
34
口口口口 |①-----|
口①①口 |------|
口②②口 |②-----|
口口口口 |------|
35
口①①口 |①-----|
口②②口 |------|
口口口口 |②-----|
口口口口 |------|
36
口口口口 |①-----|
口口②① |------|
口口②① |②-----|
口口口口 |------|
37
口口口口 |①-----|
口口口口 |------|
口口口口 |②-----|
②①①② |------|
38
口口口口 |①-----|
口口口口 |------|
①②②① |②-----|
口口口口 |------|
39
口②②口 |①-----|
口①①口 |------|
口口口口 |②-----|
口口口口 |------|
40
口口口口 |①-----|
①③口口 |②-----|
②④口口 |③-----|
口口口口 |④-----|
41
口口口口 |①-----|
口口①③ |②-----|
口口②④ |③-----|
口口口口 |④-----|
42
口口口口 |①-----|
口口口口 |②-----|
口口口口 |③-----|
①②③④ |④-----|
43
口口口口 |①-----|
口口口口 |②-----|
①②③④ |③-----|
口口口口 |④-----|
44
口口口口 |①-----|
口①①口 |------|
口②②口 |②-----|
口口口口 |------|
45
口口口口 |①-----|
口口口口 |------|
口②②口 |②-----|
口①①口 |------|
46
口口口口 |①-----|
口①①口 |------|
口②②口 |②-----|
口口口口 |------|
47
口口口口 |①-----|
口口口口 |------|
口②②口 |②-----|
口①①口 |------|
48
口口③③ |①-----|
口②口口 |②-----|
①口口口 |③-----|
口口口口 |------|
49
③③口口 |①-----|
口口②口 |②-----|
口口口① |③-----|
口口口口 |------|
50
口③③口 |①-----|
口②口口 |②-----|
口口①口 |③-----|
口口口口 |------|
51
口口口口 |①-----|
口口①口 |②-----|
口②口口 |③-----|
口③③口 |------|
52
口口口口 |①-----|
②口口② |------|
①口口① |②-----|
口口口口 |------|
53
口口口口 |①-----|
口②②口 |------|
口①①口 |②-----|
口口口口 |------|
54
口口口口 |①-----|
②口口② |------|
①口口① |②-----|
口口口口 |------|
55
口口口口 |①-----|
口①①口 |------|
口②②口 |②-----|
口口口口 |------|
56
口口③③ |①-----|
口②口口 |②-----|
①口口口 |③-----|
口口口口 |------|
57
③③口口 |①-----|
口口②口 |②-----|
口口口① |③-----|
口口口口 |------|
58
口③③口 |①-----|
口②口口 |②-----|
口口①口 |③-----|
口口口口 |------|
59
口口口口 |①-----|
口口①口 |②-----|
口②口口 |③-----|
口③③口 |------|
60
口口口口 |①-----|
口口口② |------|
口口口① |②-----|
口口口口 |------|
61
口口口口 |①-----|
口口①口 |------|
口口②口 |②-----|
口口口口 |------|
62
口口口口 |①-----|
口②口口 |------|
口①口口 |②-----|
口口口口 |------|
63
口②②口 |①-----|
①口口口 |------|
口口口口 |②-----|
口口口口 |------|
64
口口口口 |①-----|
①口口① |------|
口口口口 |------|
口口口口 |------|
65
口口口口 |①-----|
口口口口 |------|
①口口① |------|
口口口口 |------|
66
口口口口 |①-----|
口①①口 |------|
口口口口 |------|
口口口口 |------|
67
口口口口 |①-----|
口口口口 |------|
口①①口 |------|
口口口口 |------|
68
口口口口 |①-----|
口口②① |------|
口口②① |②-----|
口口口口 |------|
69
口口口口 |①-----|
②①口口 |------|
②①口口 |②-----|
口口口口 |------|
70
口①①口 |①-----|
口口口口 |------|
口口口口 |------|
口口口口 |------|
71
口口口口 |------|
口口口口 |------|
口口口口 |------|
口口口口 |------|
72
口口口口 |①-----|
口②口口 |------|
①口口口 |②-----|
口口口口 |------|
73
口口口口 |①-----|
口口口② |------|
口口①口 |②-----|
口口口口 |------|
74
口口口口 |①-----|
口口②口 |------|
口口口① |②-----|
口口口口 |------|
75
口口口口 |①-----|
②口口口 |------|
口①口口 |②-----|
口口口口 |------|
76
①②口口 |①-----|
口口口口 |------|
口口口口 |②-----|
口口口口 |------|
77
口口①② |①-----|
口口口口 |------|
口口口口 |②-----|
口口口口 |------|
78
口口口口 |①-----|
口口口① |------|
口口口② |②-----|
口口口口 |------|
79
口口口口 |①-----|
口口口口 |------|
口口口口 |②-----|
口口②① |------|
80
口口口口 |①-----|
口口口口 |------|
口口口口 |②-----|
②①口口 |------|
81
口口口口 |①-----|
②口口口 |------|
①口口口 |②-----|
口口口口 |------|
82
口口口口 |①-----|
口①②口 |------|
口口口口 |②-----|
口口口口 |------|
83
口口口口 |①-----|
口口口口 |------|
口②①口 |②-----|
口口口口 |------|


不確定度: 0

最終更新:2013年10月24日 23:05