Straight Oath
矢鴇つかさ feat. 三澤秋

BASIC

Level: 3
BPM: 182
Notes: 223

1
口口口口 |----|
口口口口 |----|
口口口口 |----|
口口口口 |----|
2
口口口口 |①---|
口口口口 |----|
口口口口 |----|
口①①口 |----|
3
口口口口 |①---|
口①口口 |----|
口口①口 |----|
口口口口 |----|
4
口口口口 |①---|
口口①口 |----|
口①口口 |----|
口口口口 |----|
5
口口口口 |①---|
口口口口 |----|
①口口① |----|
口口口口 |----|
6
口口口口 |①---|
①口口① |----|
口口口口 |----|
口口口口 |----|
7
口口口口 |①---|
口①①口 |----|
口口口口 |----|
口口口口 |----|
8
①口口① |①---|
口口口口 |----|
口口口口 |----|
口口口口 |----|
9
口口口口 |①---|
口口口口 |----|
口①①口 |----|
口口口口 |----|
10
口口口口 |①---|
口口口口 |----|
口口口口 |----|
口①①口 |----|
11
口口口口 |----|
口口口口 |----|
口口口口
口口口口
12
口口口口 |①---|
口②④口 |②---|
口①③口 |③---|
口口口口 |④---|
13
口口口口 |①---|
口②④口 |②---|
口①③口 |③---|
口口口口 |④---|
14
口口口口 |①---|
②口口④ |②---|
口①③口 |③---|
口口口口 |④---|
15
口口口口 |①---|
②口口④ |②---|
口①③口 |③---|
口口口口 |④---|
16
口①②口 |①---|
口③④口 |②---|
口口口口 |③---|
口口口口 |④---|
17
口口口口 |①---|
③口口④ |②---|
①口口② |③---|
口口口口 |④---|
18
口口口口 |①---|
口口口口 |----|
口①①口 |②---|
口②②口 |----|
19
口口口口 |①---|
②口口② |----|
①口口① |②---|
口口口口 |----|
20
口口口口 |①---|
口口口口 |----|
口①①口 |----|
口口口口 |----|
21
口口口口 |①---|
①①口口 |----|
口口口口 |----|
口口口口 |----|
22
口口口口 |①---|
口口口口 |----|
口口①口 |----|
口口口口 |----|
23
口口口口 |①---|
口口①① |----|
口口口口 |----|
口口口口 |----|
24
口口口口 |①---|
口口口口 |----|
口①口口 |----|
口口口口 |----|
25
口口口口 |①---|
①①口口 |----|
口口口口 |----|
口口口口 |----|
26
口口口口 |①---|
口②口口 |----|
口①口口 |②---|
口口口口 |----|
27
口口口口 |①---|
口口②口 |----|
口口①口 |②---|
口口口口 |----|
28
口口口口 |①---|
口口口口 |----|
口①①口 |----|
口口口口 |----|
29
口口口口 |①---|
①①口口 |----|
口口口口 |----|
口口口口 |----|
30
口口口口 |①---|
口口口口 |----|
口口①口 |----|
口口口口 |----|
31
口口口口 |①---|
口口①① |----|
口口口口 |----|
口口口口 |----|
32
口口口口 |①---|
口口口口 |----|
口①口口 |----|
口口口口 |----|
33
口口口口 |①---|
①①口口 |----|
口口口口 |----|
口口口口 |----|
34
口口口口 |①---|
口口口口 |----|
②口口② |②---|
①口口① |----|
35
口口口口 |①---|
口②②口 |----|
口①①口 |②---|
口口口口 |----|
36
口口口口 |①---|
口口口口 |----|
口口口口 |----|
口①①口 |----|
37
口口口口 |----|
口口口口 |----|
口口口口 |----|
口口口口 |----|
38
口口口口 |①---|
口①口口 |----|
口口①口 |----|
口口口口 |----|
39
口口口口 |----|
口口口口 |----|
口口口口 |----|
口口口口 |----|
40
口口口口 |①---|
口口口口 |----|
口口口口 |----|
①口口① |----|
41
口口口口 |----|
口口口口 |----|
口口口口 |----|
口口口口 |----|
42
口口口口 |①---|
口口口口 |----|
①口口① |----|
口口口口 |----|
43
口口口口 |①---|
口口口口 |----|
口①①口 |----|
口口口口 |----|
44
口口口口 |①---|
口①口口 |----|
口口①口 |----|
口口口口 |----|
45
口口口口 |----|
口口口口 |----|
口口口口 |----|
口口口口 |----|
46
口口口口 |①---|
口口①口 |----|
口①口口 |----|
口口口口 |----|
47
口口口口 |----|
口口口口 |----|
口口口口 |----|
口口口口 |----|
48
口口口口 |①---|
口口口口 |----|
②口口② |②---|
①口口① |----|
49
口口口口 |①---|
口口口口 |----|
②口口② |②---|
①口口① |----|
50
口口口口 |①---|
口口口口 |②---|
口③④口 |③---|
口①②口 |④---|
51
口③④口 |①---|
口①②口 |②---|
口口口口 |③---|
口口口口 |④---|
52
口口口口 |----|
口口口口 |----|
口口口口 |----|
口口口口 |----|
53
口④口口 |①---|
口③口口 |②---|
口②口口 |③---|
口①口口 |④---|
54
口口①口 |①---|
口口②口 |②---|
口口③口 |③---|
口口④口 |④---|
55
口④口口 |①---|
口③口口 |②---|
口②口口 |③---|
口①口口 |④---|
56
口口①口 |①---|
口口②口 |②---|
口口③口 |③---|
口口④口 |④---|
57
口④口口 |①---|
口③口口 |②---|
口②口口 |③---|
①①口口 |④---|
58
口口①① |①---|
口口②口 |②---|
口口③口 |③---|
口口④口 |④---|
59
口④口口 |①---|
口③口口 |②---|
口②口口 |③---|
①①口口 |④---|
60
口口①① |①---|
口口②口 |②---|
口口③口 |③---|
口口④口 |④---|
61
口④口口 |①---|
口③口口 |②---|
①②口口 |③---|
口①口口 |④---|
62
口口①① |①---|
口口②口 |②---|
口口③口 |③---|
口口④口 |④---|
63
口④口口 |①---|
口③口口 |②---|
①②口口 |③---|
口①口口 |④---|
64
口口①① |①---|
口口②口 |②---|
口口③口 |③---|
口口④口 |④---|
65
口④口口 |①---|
口③口口 |②---|
①②口口 |③---|
口①口口 |④---|
66
口口①① |①---|
口口②口 |②---|
口口③口 |③---|
口口④口 |④---|
67
口口口口 |①---|
②口口② |----|
①口口① |②---|
口口口口 |----|
68
口口口口 |①---|
口①②口 |----|
口②①口 |②---|
口口口口 |----|
69
口口口口 |①---|
口②④口 |②---|
①口③① |③---|
口口口口 |④---|
70
口口口口 |①---|
口②④口 |②---|
口①③口 |③---|
口口口口 |④---|
71
口口口口 |①---|
②口口④ |②---|
口①③口 |③---|
口口口口 |④---|
72
口口口口 |①---|
②口口④ |②---|
口①③口 |③---|
口口口口 |④---|
73
口①②口 |①---|
口③④口 |②---|
口口口口 |③---|
口口口口 |④---|
74
口口口口 |①---|
③口口④ |②---|
①口口② |③---|
口口口口 |④---|
75
口口口口 |①---|
口口口口 |----|
口①①口 |②---|
口②②口 |----|
76
口口口口 |①---|
②口口② |----|
①口口① |②---|
口口口口 |----|
77
口口口口 |----|
口口口口 |----|
口口口口 |①---|
①①①① |----|


不確定度: 0

最終更新:2013年10月17日 16:15