Straight Oath
矢鴇つかさ feat. 三澤秋

ADVANCED

Level: 5
BPM: 182
Notes: 303

1
口口口口 |----|
口口口口 |----|
口口口口 |----|
口口口口 |----|
2
口口口口 |①---|
口口口口 |----|
口口口口 |----|
①口口① |----|
3
口③④口 |①---|
①口口② |--②-|
口①口口 |----|
口口口口 |③-④-|
4
口口口口 |----|
口口口口 |----|
口口口口 |----|
口口口口 |----|
5
口口口口 |----|
口口口口 |----|
口口口口 |----|
口口口口 |----|
6
②口口② |----|
口口口口 |----|
口口口口 |①---|
①口口① |②---|
7
②口口③ |①---|
口①口口 |----|
口口①口 |----|
口口口口 |②-③-|
8
口口口口 |----|
口口口口 |----|
口口口口 |----|
口口口口 |----|
9
口口口口 |①---|
口口口口 |----|
口①口口 |----|
口口①口 |----|
10
口口口口 |①---|
口口口口 |----|
口口①口 |----|
口①口口 |----|
11
口口口口 |----|
口口口口 |----|
口口口口
口口口口
12
口口口口 |①---|
口③④口 |②---|
口①②口 |③---|
口口口口 |④---|
13
口口口口 |①---|
口②③口 |----|
口口口口 |②---|
口①①口 |③---|
14
口口口口 |①---|
口口口口 |----|
口②口口 |----|
口①①口 |②---|
15
口③②口 |①---|
口①①口 |----|
口口口口 |②---|
口口口口 |③---|
16
口③口口 |①---|
②①口口 |----|
口口①口 |②---|
口口口口 |③---|
17
口口①口 |①---|
口口口② |②---|
口④③口 |③---|
口口口口 |④---|
18
口口口口 |①---|
口①①口 |----|
②口口② |②---|
口口口口 |----|
19
②口口② |①---|
①口口① |----|
口口口口 |②---|
口口口口 |----|
20
口⑥口口 |①---|
口①④⑤ |--②-|
②③①口 |③-④-|
口口口口 |⑤-⑥-|
21
口口口口 |--①-|
口②口口 |②---|
口口①口 |----|
口口口口 |----|
22
口⑤口口 |----|
①②口口 |--①-|
口口③④ |②-③-|
口口口口 |④-⑤-|
23
口口口口 |--①-|
口口口口 |②---|
口②口口 |----|
口口①口 |----|
24
口⑤口口 |----|
口口③④ |--①-|
①②口口 |②-③-|
口口口口 |④-⑤-|
25
④口②口 |--①-|
③④口口 |②---|
口③①口 |③---|
口口口口 |④---|
26
口口②② |①---|
口口口口 |--②-|
口口口① |----|
口③①口 |③---|
27
③②口③ |①---|
①④⑤口 |②-③-|
口①口口 |--④-|
口口口口 |⑤---|
28
⑤口口⑤ |----|
口口③④ |--①-|
①②口口 |②-③-|
口口口口 |④-⑤-|
29
口口口口 |--①-|
②②口口 |②---|
口口①① |----|
口口口口 |----|
30
⑤口口⑤ |----|
①②口口 |--①-|
口口③④ |②-③-|
口口口口 |④-⑤-|
31
口口口口 |--①-|
④③②② |②---|
①①③④ |③---|
口口口口 |④---|
32
口口口口 |①---|
口口③口 |②-③-|
口②口口 |----|
口①①口 |----|
33
口口口口 |----|
口口口口 |----|
口②口口 |①---|
①口②① |②---|
34
④口口④ |①---|
①②③① |②-③-|
①⑤⑤① |----|
口口口口 |④-⑤-|
35
口口口口 |--①-|
①口④② |②---|
①口⑤② |③---|
口口口③ |④-⑤-|
36
口口口口 |----|
口口口口 |----|
口口口口 |----|
口口口口 |----|
37
口口口口 |----|
口②口口 |----|
口③口口 |①---|
①口口口 |②-③-|
38
口口口口 |----|
口口口口 |----|
口口口口 |----|
口口口口 |----|
39
口口口口 |----|
口口③口 |--①-|
口口④口 |②---|
口①②口 |③-④-|
40
①口口口 |----|
②口口口 |①---|
口口口口 |--②-|
口口口口 |----|
41
口②口口 |①---|
口①口口 |--②-|
口口口口 |----|
口口口口 |----|
42
口口口① |----|
口口口② |①---|
口口口口 |--②-|
口口口口 |----|
43
口口口口 |①---|
口④①口 |--②-|
口⑤②口 |③---|
③口口口 |④-⑤-|
44
口口口口 |----|
口口口口 |----|
口口口口 |----|
口口口口 |----|
45
口口口口 |----|
口口②口 |----|
口口③口 |①---|
口口口① |②-③-|
46
口口口口 |----|
口口口口 |----|
口口口口 |----|
口口口口 |----|
47
口口口口 |----|
口③④口 |--①-|
口口口口 |②---|
口①②口 |③-④-|
48
口口口口 |①---|
口口口口 |----|
②①①② |②---|
口口口口 |----|
49
口口口口 |①---|
口口口口 |----|
②①①② |②---|
口口口口 |----|
50
口口口口 |①---|
口③④口 |②---|
口口②口 |③---|
口①口口 |④---|
51
④口口④ |①---|
口③口口 |②---|
口口②口 |③---|
口①口口 |④---|
52
口口口口 |----|
口口口口 |----|
口口口口 |----|
口口口口 |----|
53
口口口口 |①---|
口口口口 |②---|
口③④口 |③---|
口①②口 |④---|
54
③③④④ |①---|
①①②② |②---|
口口口口 |③---|
口口口口 |④---|
55
口口口口 |①---|
口口口口 |②---|
口③④口 |③---|
口①②口 |④---|
56
①③④② |①---|
口①②口 |②---|
口口口口 |③---|
口口口口 |④---|
57
口口口口 |①---|
口口口口 |②---|
口③④口 |③---|
口①②口 |④---|
58
口①②口 |①---|
①③④② |②---|
口口口口 |③---|
口口口口 |④---|
59
口口口口 |①---|
口口口口 |②---|
口③④口 |③---|
口①②口 |④---|
60
①①②② |①---|
③③④④ |②---|
口口口口 |③---|
口口口口 |④---|
61
口口口口 |①---|
口口口口 |②---|
③口口④ |③---|
①口口② |④---|
62
③③④④ |①---|
①①②② |②---|
口口口口 |③---|
口口口口 |④---|
63
口口口口 |①---|
口口口口 |②---|
③口口④ |③---|
①口口② |④---|
64
①③④② |①---|
口①②口 |②---|
口口口口 |③---|
口口口口 |④---|
65
口口口口 |①---|
口口口口 |②---|
③口口④ |③---|
①口口② |④---|
66
①①②② |①---|
③③④④ |②---|
口口口口 |③---|
口口口口 |④---|
67
口口口口 |①---|
口口口口 |----|
口口口口 |②---|
②①①② |----|
68
②②②② |①---|
口口口口 |----|
口①①口 |②---|
口口口口 |----|
69
口口口口 |①---|
口③④口 |②---|
口①②口 |③---|
口口口口 |④---|
70
口口口口 |①---|
口②③口 |----|
口口口口 |②---|
口①①口 |③---|
71
口口口口 |①---|
口口口口 |----|
口②口口 |----|
口①①口 |②---|
72
口③②口 |①---|
口①①口 |----|
口口口口 |②---|
口口口口 |③---|
73
口③口口 |①---|
②①口口 |----|
口口①口 |②---|
口口口口 |③---|
74
口口①口 |①---|
口口口② |②---|
口④③口 |③---|
口口口口 |④---|
75
口口口口 |①---|
口①①口 |----|
②口口② |②---|
口口口口 |----|
76
②口口② |①---|
①口口① |----|
口口口口 |②---|
口口口口 |----|
77
口口口口 |----|
口口口口 |----|
口口口口 |①---|
①①①① |----|


不確定度: 0

最終更新:2013年10月17日 16:14