夏・KOI・ムッシュ!!
ビーチサンダルズ

BASIC

Level: 5
BPM: 140
Notes: 218

1
口口口口 |----|
口口口口 |----|
口口口口 |----|
口口口口 |----|
2
口口口口 |①---|
口口②口 |--②-|
口①口口 |----|
口口口口 |----|
3
口口③口 |①---|
口②口口 |---②|
口口①口 |--③-|
口口口口 |----|
4
口口口口 |----|
口口口口 |----|
口口口口 |----|
口口口口 |----|
5
口口口口 |①---|
①②②① |----|
口口口口 |②---|
口口口口 |----|
6
口口口口 |①---|
口口③口 |----|
口口②口 |②---|
口①口口 |③---|
7
①②口① |①---|
口口口口 |----|
口口口口 |②---|
口口口口 |----|
8
口口口口 |①---|
①口口① |--②-|
口②②口 |----|
③口口③ |--③-|
9
口口口口 |----|
口口口口 |----|
口口口口 |----|
口口口口 |----|
10
口③口① |①---|
②口①口 |--②-|
口口口口 |----|
口口口口 |③---|
11
口口口③ |①--②|
口④③② |--③-|
口口②① |----|
口口①口 |④---|
12
口口口口 |①---|
口口④口 |--②-|
②③口① |③---|
口口①口 |--④-|
13
口口口口 |①-②-|
口口口口 |----|
③口口① |----|
口口②口 |③---|
14
口口口口 |①---|
②③口口 |----|
口口口① |②---|
口口①口 |③---|
15
口①口口 |①---|
口口口口 |----|
②口口口 |----|
口口口口 |②---|
16
口口口② |①---|
口口②③ |----|
口①③口 |②---|
口口口口 |③---|
17
口口口口 |①---|
口口口口 |----|
口口口① |----|
②口①口 |②---|
18
口口口口 |①---|
口口③口 |----|
口①①② |②---|
口口口口 |③---|
19
②①口② |①---|
口口口口 |----|
口口口口 |②---|
口口口口 |----|
20
口口口③ |①---|
口口③④ |②---|
①②④口 |③---|
口口口口 |④---|
21
口口口口 |①---|
口口口口 |----|
口口口①
口口①口

口口口口
口口口口
口口口② |----|
口口口口 |②---|
22
口口口口 |①---|
口口③② |----|
①口口口 |②---|
口①口口 |③---|
23
口口①口 |①---|
口口口口 |----|
口口口② |----|
口口口口 |②---|
24
②口口口 |①---|
③②口口 |----|
口③①口 |②---|
口口口口 |③---|
25
口口口口 |①---|
口口口口 |----|
①口口口 |----|
口①口② |②---|
26
口口口口 |①---|
口③口口 |----|
②①①口 |②---|
口口口口 |③---|
27
②口①② |①---|
口口口口 |----|
口口口口 |②---|
口口口口 |----|
28
②口口口 |①---|
③②口口 |----|
口③口① |②---|
口口①口 |③---|
29
口口口口 |①---|
口口口口 |----|
①口口口
口①口口

口口口口
口口口口
②口口口 |----|
口口口口 |②---|
30
口口口口 |①---|
③口口① |----|
口口口② |②---|
口口口口 |③---|
31
口口口口 |①---|
口①④口 |②---|
口③②口 |③---|
口口口口 |④---|
32
口口口① |①---|
口口口口 |----|
口口口口 |----|
口口口口 |----|
33
口口口口 |----|
口口口口 |----|
口口口① |----|
口口口口 |①---|
34
口口口口 |①---|
①口口③ |----|
②口口口 |②---|
口口口口 |③---|
35
口口口口 |①---|
口④①口 |②---|
口②③口 |③---|
口口口口 |④---|
36
口口口① |①---|
③口口口 |----|
口③口② |②---|
口口②口 |③---|
37
口口口① |①---|
口口①口 |②---|
②口口② |----|
口口口口 |----|
38
口口口口 |----|
口口口口 |----|
口口口口 |----|
口口口口 |----|
39
①①①① |①---|
②②②② |----|
口口口口 |②---|
口口口口 |----|
40
口口口口 |①---|
口口口口 |----|
①③口② |②---|
口口②口 |③---|
41
②口口① |①---|
口口①口 |----|
口口口口 |②---|
口口口口 |----|
42
口口口口 |①---|
口①②口 |----|
口口口口 |②---|
口口口口 |----|
43
①口口口 |①---|
口①口口 |②---|
③口②口 |③---|
口③口口 |----|
44
口口口① |①---|
口口①口 |----|
口口口口 |----|
口口口口 |----|
45
口口口口 |①---|
①口口口 |----|
口①口口 |----|
口口口口 |----|
46
口口口口 |①---|
口口③口 |----|
口口②口 |②---|
①口口① |③---|
47
①口口① |①---|
口口口口 |----|
口口口口 |----|
口口口口 |----|
48
口口口口 |①---|
口口口口 |----|
②口③① |②---|
口②口口 |③---|
49
①口口② |①---|
口①口口 |----|
口口口口 |②---|
口口口口 |----|
50
口口口口 |①---|
口②①口 |----|
口口口口 |②---|
口口口口 |----|
51
口口口① |①---|
口口①口 |②---|
口②口③ |③---|
口口③口 |----|
52
①口口口 |①---|
口①②口 |②---|
口③口口 |③---|
口口口口 |----|
53
口口③口 |①---|
口②口① |②---|
口口①口 |③---|
口口口口 |----|
54
①②②① |①---|
口口口口 |----|
口口口口 |②---|
口口口口 |----|
55
①口口① |①---|
口口口口 |----|
口口口口 |----|
口口口口 |----|
56
口③口口 |①---|
①④②口 |②---|
口口口口 |③---|
口口口口 |④---|
57
口口口口 |①---|
口口口口 |----|
口①②口 |②---|
口口③口 |③---|
58
口口口① |①---|
②口①口 |----|
口②口口 |②---|
口口口口 |----|
59
口口口口 |①---|
口口口口 |----|
口口口① |----|
口口①口 |----|
60
②口口② |①---|
口①①口 |--②-|
口口口口 |----|
口口口口 |----|
61
口口口口 |①--②|
口①①口 |--③-|
口②②口 |----|
口③③口 |----|
62
口口口口 |①---|
④口口② |②---|
①口口③ |③---|
口口口口 |④---|
63
口③③口 |--①-|
口①①口 |-②--|
口②②口 |③---|
口口口口 |----|


不確定度: 0

最終更新:2013年10月17日 16:13