New Decade
Sota F.

BASIC

Level: 4
BPM: 200
Notes: 281

1
口口口口 |----|
口口口口 |----|
口口口口 |----|
口口口口 |----|
2
①口口② |①---|
③口口④ |②---|
口口口口 |③---|
口口口口 |④---|
3
口口口口 |①---|
口口口口 |②---|
口①②口 |③---|
口③④口 |④---|
4
口①②口 |①---|
口③④口 |②---|
口口口口 |③---|
口口口口 |④---|
5
口口口口 |①---|
口口口口 |②---|
①口口② |③---|
③口口④ |④---|
6
口①口口 |①---|
口口②口 |②---|
口③口口 |③---|
口口④口 |④---|
7
①口口口 |①---|
口口口② |②---|
③口口口 |③---|
口口口④ |④---|
8
③口口③ |①---|
口②②口 |----|
口①①口 |②---|
口口口口 |--③-|
9
口口口口 |--①-|
①口口① |--②-|
②口口② |--③-|
③口口③ |----|
10
口口口口 |①---|
口口口口 |②---|
口③④口 |③---|
口①②口 |④---|
11
口③④口 |①---|
口①②口 |②---|
口口口口 |③---|
口口口口 |④---|
12
口口口口 |①---|
①②③④ |②---|
口口口口 |③---|
口口口口 |④---|
13
口口口口 |①---|
口口口口 |②---|
口口口口 |③---|
④③②① |④---|
14
口②①口 |①---|
口④③口 |②---|
口口口口 |③---|
口口口口 |④---|
15
口口口口 |①---|
口口口口 |②---|
口②①口 |③---|
口④③口 |④---|
16
②口口② |①---|
①口口① |----|
口口口口 |②---|
口口口口 |----|
17
口①①口 |①---|
口②②口 |②---|
口③③口 |③---|
口④④口 |④---|
18
④口口口 |①---|
③口口口 |②---|
②口口口 |③---|
①口口口 |④---|
19
口口口④ |①---|
口口口③ |②---|
口口口② |③---|
口口口① |④---|
20
口④④口 |①---|
口③③口 |②---|
口②②口 |③---|
口①①口 |④---|
21
④口口④ |①---|
③口口③ |②---|
②口口② |③---|
①口口① |④---|
22
口④口口 |①---|
口③口口 |②---|
口②口口 |③---|
口①口口 |④---|
23
口口④口 |①---|
口口③口 |②---|
口口②口 |③---|
口口①口 |④---|
24
口口口口 |①---|
①口口① |----|
②口口② |②---|
口口口口 |----|
25
口口口口 |①---|
口①①口 |②---|
口③③口 |③---|
口②②口 |----|
26
①②③口 |①---|
口口口口 |②---|
口口口口 |③---|
口口口口 |----|
27
口口口口 |①---|
口口①口 |--②-|
口②口口 |----|
口口口口 |----|
28
口口口口 |①---|
①②③④ |②---|
口口口口 |③---|
口口口口 |④---|
29
口口口口 |①---|
口口口口 |②---|
口口口口 |③---|
④③②① |④---|
30
②口口② |①---|
口口口口 |②---|
口①①口 |----|
口口口口 |----|
31
口口口口 |①---|
②口口② |----|
①口口① |②---|
口口口口 |----|
32
口①口口 |①---|
口口②口 |②---|
口③口口 |③---|
口口④口 |④---|
33
口口④口 |①---|
口③口口 |②---|
口口②口 |③---|
口①口口 |④---|
34
①①口口 |①---|
口口口口 |----|
口口口口 |----|
口口口口 |----|
35
口口①① |①---|
口口口口 |----|
口口口口 |----|
口口口口 |----|
36
口口口口 |①---|
口口口口 |----|
口①①口 |②---|
口②②口 |----|
37
口口口口 |①---|
①②③④ |②---|
口口口口 |③---|
口口口口 |④---|
38
②①①② |①---|
口口口口 |----|
口口口口 |②---|
口口口口 |----|
39
口口口口 |①---|
口①①口 |----|
口口口口 |②---|
口②②口 |----|
40
口口口口 |①---|
②口口② |----|
口①①口 |②---|
口口口口 |----|
41
②口口② |①---|
口口口口 |----|
口①①口 |②---|
口口口口 |----|
42
口口口口 |①---|
口①口口 |----|
口口口口 |----|
口口口口 |----|
43
口口口口 |①---|
口口①口 |----|
口口口口 |----|
口口口口 |----|
44
口口口口 |①---|
口口口口 |----|
口①②口 |②---|
口口口口 |----|
45
口口口口 |①---|
口口口口 |②---|
口口口口 |③---|
①②③口 |----|
46
口口口口 |①---|
口③④口 |②---|
口①②口 |③---|
口口口口 |④---|
47
口口口口 |①---|
口口口口 |②---|
③口口④ |③---|
①口口② |④---|
48
口①②③ |①---|
口④口口 |②---|
口口口口 |③---|
口口口口 |④---|
49
口口口口 |①---|
口口①口 |----|
口口口口 |----|
口口口口 |----|
50
口口口口 |①---|
口口口口 |②---|
口口口口 |③---|
口①②③ |----|
51
口口口口 |①---|
④③②① |②---|
口口口口 |③---|
口口口口 |④---|
52
口口口口 |①---|
口口口口 |②---|
口②①口 |③---|
口④③口 |④---|
53
口口口口 |①---|
口口口口 |----|
口口口口 |----|
口口口① |----|
54
①①②② |①---|
口口口口 |----|
口口口口 |②---|
口口口口 |----|
55
口口口口 |①---|
口③③口 |②---|
口②②口 |③---|
口①①口 |----|
56
口口口口 |①---|
①口口② |②---|
③口口④ |③---|
口口口口 |④---|
57
口口口口 |①---|
口口口口 |②---|
口①②口 |③---|
口③④口 |④---|
58
①①②② |①---|
口口口口 |----|
口口口口 |②---|
口口口口 |----|
59
口口口口 |①---|
口③③口 |②---|
口②②口 |③---|
口①①口 |----|
60
口口口口 |①---|
①口口② |②---|
③口口④ |③---|
口口口口 |④---|
61
口口口口 |①---|
口口口口 |②---|
口①②口 |③---|
口③④口 |④---|
62
④口口口 |①---|
③口口口 |②---|
②口口口 |③---|
①口口口 |④---|
63
口①②③ |①---|
口口口④ |②---|
口口口口 |③---|
口口口口 |④---|
64
口口口口 |①---|
口口口口 |②---|
口口口① |③---|
口④③② |④---|
65
口口口口 |①---|
口②③口 |②---|
口①④口 |③---|
口口口口 |④---|
66
④口口口 |①---|
③口口口 |②---|
②①口口 |③---|
口口口口 |④---|
67
口①②③ |①---|
口口口④ |②---|
口口口口 |③---|
口口口口 |④---|
68
口口口口 |①---|
口口口口 |②---|
口口口① |③---|
口④③② |④---|
69
口口口口 |①---|
③④口口 |②---|
②口口口 |③---|
①口口口 |④---|
70
口口口口 |①---|
口口①口 |----|
口口口口 |----|
口口口口 |----|
71
口口口口 |①---|
口口口口 |----|
口①口口 |----|
口口口口 |----|
72
口口口口 |①---|
口口口口 |----|
口②①口 |②---|
口口口口 |----|
73
口口口口 |①---|
④②③口 |②---|
口口①口 |③---|
口口口口 |④---|
74
口①①口 |①---|
口口口口 |----|
口口口口 |----|
口口口口 |----|


不確定度: 0

最終更新:2013年10月17日 16:06