New Decade
Sota F.

ADVANCED

Level: 8
BPM: 200
Notes: 503

1
口口口口 |----|
口口口口 |----|
口口口口 |----|
口口口口 |----|
2
①口口② |①-②-|
③口口④ |③-④-|
⑤口口⑥ |⑤-⑥-|
⑦口口⑧ |⑦-⑧-|
3
口①②口 |①-②-|
口③④口 |③-④-|
口⑤⑥口 |⑤-⑥-|
口⑦⑧口 |⑦-⑧-|
4
①口②口 |①-②-|
③口④口 |③-④-|
⑤口⑥口 |⑤-⑥-|
⑦口⑧口 |⑦-⑧-|
5
口①口② |①-②-|
口③口④ |③-④-|
口⑤口⑥ |⑤-⑥-|
口⑦口⑧ |⑦-⑧-|
6
①口②口 |①-②-|
口③口④ |③-④-|
⑤口⑥口 |⑤-⑥-|
口⑦口⑧ |⑦-⑧-|
7
口①口② |①-②-|
③口④口 |③-④-|
口⑤口⑥ |⑤-⑥-|
⑦口⑧口 |⑦-⑧-|
8
口①①口 |①---|
②口口③ |②-③-|
口口口口
口口口口

口⑥⑥口
口口口口
口④⑤口 |④-⑤-|
口口口口 |--⑥-|
9
②口口② |--①-|
口口口口 |--②-|
口口口口 |--③-|
③①①③ |----|
10
口①②口 |①-②-|
口③④口 |③-④-|
口⑤⑥口 |⑤-⑥-|
口⑦⑧口 |⑦-⑧-|
11
①口口② |①-②-|
③口口④ |③-④-|
⑤口口⑥ |⑤-⑥-|
⑦口口⑧ |⑦-⑧-|
12
①②③④ |①-②-|
口⑤⑥口 |③-④-|
口⑦⑧口 |⑤-⑥-|
口口口口 |⑦-⑧-|
13
口口口口 |①-②-|
⑧口口⑦ |③-④-|
⑥口口⑤ |⑤-⑥-|
④③②① |⑦-⑧-|
14
①口②口 |①-②-|
⑦口⑧口 |③-④-|
口③口④ |⑤-⑥-|
⑤口⑥口 |⑦-⑧-|
15
口①口② |①-②-|
口⑦口⑧ |③-④-|
口③口④ |⑤-⑥-|
⑤口⑥口 |⑦-⑧-|
16
①⑤⑥② |①-②-|
口口口口 |③-④-|
③⑦⑧④ |⑤-⑥-|
口口口口 |⑦-⑧-|
17
⑤⑦⑦⑤ |①-②-|
③①①③ |③-④-|
⑥⑧⑧⑥ |⑤-⑥-|
④②②④ |⑦-⑧-|
18
口口口口 |①---|
③①②④ |②---|
口口口口 |③---|
口口口口 |④---|
19
①②③④ |①---|
口口口口 |②---|
口口口口 |③---|
口口口口 |④---|
20
⑦口口口 |①-②-|
口①④⑧ |③-④-|
口⑤⑥口 |⑤-⑥-|
③口口② |⑦-⑧-|
21
口③口② |①-②-|
①口④口 |③-④-|
口⑦⑧口 |⑤-⑥-|
⑤口口⑥ |⑦-⑧-|
22
口③④口 |①---|
口①②口 |②---|
口口口口 |③---|
口口口口 |④---|
23
口口口口 |①---|
口口口口 |②---|
①②③④ |③---|
口口口口 |④---|
24
口⑤⑤口 |①-②-|
④②①③ |③-④-|
口口口口 |--⑤-|
③①②④ |----|
25
口口口口 |①---|
口①①口 |②---|
口②②口 |③---|
口③③口 |----|
26
②口口① |①---|
口②①口 |②---|
口④③口 |③---|
④口口③ |④---|
27
口②③口 |①---|
①口口① |②-③-|
口口口口 |----|
口口口口 |----|
28
①口口② |①-②-|
③口口④ |③-④-|
⑤口口⑥ |⑤-⑥-|
⑦口口⑧ |⑦-⑧-|
29
口①②口 |①-②-|
口③④口 |③-④-|
口⑤⑥口 |⑤-⑥-|
口⑦⑧口 |⑦-⑧-|
30
口③③口 |①-②-|
口口口口 |③---|
①④④② |--④-|
口口口口 |----|
31
口口口口 |①-②-|
③①②④ |③-④-|
⑤⑦⑧⑥ |⑤-⑥-|
口口口口 |⑦-⑧-|
32
①②⑧⑦ |①-②-|
口口口口 |③-④-|
口口口口 |⑤-⑥-|
⑤⑥④③ |⑦-⑧-|
33
口口口口 |①-②-|
⑤①②⑥ |③-④-|
⑦③④⑧ |⑤-⑥-|
口口口口 |⑦-⑧-|
34
口口口口 |①---|
口口口口 |----|
口口口口 |----|
①①口口 |----|
35
口口口口 |①---|
口口口口 |----|
口口口口 |----|
口口①① |----|
36
②③④口 |①---|
口①①口 |②-③-|
口⑤口口 |④---|
口口口口 |⑤---|
37
口口口口 |--①-|
④③②① |②-③-|
口口⑤口 |④---|
口口口口 |⑤---|
38
口口口口 |①---|
⑤②③⑤ |②-③-|
口④④口 |--④-|
口①①口 |--⑤-|
39
口口口口 |--①-|
口口口口 |--②-|
①④④① |③---|
口②③口 |④---|
40
⑤①①⑤ |①---|
口②③口 |②-③-|
口④④口 |--④-|
口口口口 |--⑤-|
41
口口口口 |--①-|
①口口① |--②-|
②口口② |--③-|
③口口③ |----|
42
口口口口 |①---|
口①①口 |----|
口①①口 |----|
口口口口 |----|
43
口口口口 |①---|
①口口① |----|
①口口① |----|
口口口口 |----|
44
口口口口 |①---|
②①①② |----|
②①①② |②---|
口口口口 |----|
45
口①①口 |①---|
口②②口 |②---|
口③③口 |③---|
口口口口 |----|
46
口口口口 |--①-|
③口口口 |②-③-|
口口口② |----|
①口口口 |----|
47
①口口② |①-②-|
③口口④ |③-④-|
口⑤⑥口 |⑤-⑥-|
口⑦⑧口 |⑦-⑧-|
48
口口口④ |①-②-|
口①口口 |③-④-|
③口口口
口口口②

⑤口口口
口⑦⑥口
口口口口 |--⑤-|
口口口口 |⑥-⑦-|
49
口口口口 |①---|
口口口口 |②-③-|
口②③① |--④-|
④口口口 |----|
50
口口口口 |--①-|
口口口③ |②-③-|
②口口口 |----|
口口口① |----|
51
①口口② |①-②-|
③口口④ |③-④-|
口⑤⑥口 |⑤-⑥-|
口⑦⑧口 |⑦-⑧-|
52
口⑥⑧口 |①-②-|
⑦①口④ |③-④-|
③口⑤口 |⑤-⑥-|
口口口② |⑦-⑧-|
53
④口口口 |①-②-|
口②③口 |③-④-|
口口口① |----|
口口口口 |----|
54
口口口口 |①---|
口③②口 |②-③-|
口①①口
口②③口

口口口口
口口口口
口⑤⑤口 |--④-|
④口口④ |--⑤-|
55
①口口① |--①-|
②口口② |--②-|
口口口口 |----|
口口口口 |----|
56
口口口口 |--①-|
口口口③ |②-③-|
②④口⑤ |--④-|
口口口① |--⑤-|
57
口①②口 |----|
口④④口 |①-②-|
口口口口 |--③-|
口③③口 |--④-|
58
口口口口 |①---|
③⑤⑤② |②-③-|
①口口① |--④-|
②④④③ |--⑤-|
59
①口口① |--①-|
口口口口 |--②-|
②口口② |----|
口口口口 |----|
60
③口口④ |①-②-|
①③④② |--③-|
⑤①②⑥ |④---|
口⑤⑥口 |⑤-⑥-|
61
口③③口 |①-②-|
①口口② |----|
口①②口 |----|
口口口口 |③---|
62
①口口⑧ |①-②-|
③口口⑥ |③-④-|
⑤口口④ |⑤-⑥-|
⑦口口② |⑦-⑧-|
63
⑥④②口 |①-②-|
⑧口口口 |③-④-|
口口口⑦ |⑤-⑥-|
口①③⑤ |⑦-⑧-|
64
口⑦⑤③ |①-②-|
口口口① |③-④-|
②口口口 |⑤-⑥-|
④⑥⑧口 |⑦-⑧-|
65
口口口口 |①-②-|
⑦①④⑥ |③-④-|
⑤③②⑧ |⑤-⑥-|
口口口口 |⑦-⑧-|
66
口⑦②口 |①-②-|
口⑤④口 |③-④-|
口③⑥口 |⑤-⑥-|
口①⑧口 |⑦-⑧-|
67
①口口⑧ |①-②-|
③口口⑥ |③-④-|
⑤口口④ |⑤-⑥-|
⑦口口② |⑦-⑧-|
68
⑥④②口 |①-②-|
⑧口口口 |③-④-|
口口口⑦ |⑤-⑥-|
口①③⑤ |⑦-⑧-|
69
口⑦⑤③ |①-②-|
口口口① |③-④-|
②口口口 |⑤-⑥-|
④⑥⑧口 |⑦-⑧-|
70
口口口口 |①---|
口①①口 |----|
口①①口 |----|
口口口口 |----|
71
口口口口 |①---|
①口口① |----|
①口口① |----|
口口口口 |----|
72
口口口口 |①---|
②①①② |----|
②①①② |②---|
口口口口 |----|
73
②②③③ |①---|
口①①口 |②---|
⑦⑥⑤④ |③---|
③③②② |④⑤⑥⑦|
74
口口口口 |①---|
口①①口 |----|
口口口口 |----|
口口口口 |----|


不確定度: 0

最終更新:2013年10月17日 16:05