万華鏡
Jimmy Weckl

ADVANCED

Level: 8
BPM: 138
Notes: 508

1
口口口口 |----|
口口口口 |----|
口口口口 |----|
口口口口 |----|
2
口口口口 |----|
口口口口 |----|
口口口口 |----|
口口口口 |----|
3
③⑥口③ |①-②-|
口④⑤⑦ |③-④⑤|
⑧口口口 |--⑥-|
口②①口 |⑦-⑧-|
4
口⑥⑥口 |①--②|
③口口③ |--③-|
⑤②②④ |--④-|
⑤①①④ |⑤-⑥-|
5
③⑥口③ |①-②-|
口④⑤⑦ |③-④⑤|
⑧口口口 |--⑥-|
口①②口 |⑦-⑧-|
6
口口口口 |①--②|
③口口③ |--③-|
口②②口 |----|
口①①口 |----|
7
口⑤口口 |--①②|
口口口口 |③④-⑤|
①②③④
口口口口

口口⑥口
⑦口口口
⑨口口口 |⑥-⑦-|
口口口⑧ |⑧-⑨-|
8
口口口口 |①②-③|
口④④口 |-④-⑤|
口口③口
⑤②①⑤

⑥⑦⑧口
口口口口
⑫⑪⑩⑨ |-⑥⑦⑧|
口口口口 |⑨⑩⑪⑫|
9
④⑤⑥口 |①②③-|
⑦③②① |④⑤⑥-|
口口口⑧ |⑦--⑧|
口⑨⑩口 |-⑨⑩-|
10
③口口③ |①--②|
口①①口 |--③-|
口②②口 |----|
口口口口 |----|
11
③口③口 |--①-|
口②①口 |--②-|
口③口口 |--③-|
①②①② |--|
12
口口口口 |①---|
①③③① |②-③-|
口口口口 |--|
口②②口
13
①口口② |----|
口口口口 |①---|
①口口② |②---|
口口口口 |--|
14
口①①口 |①---|
口口口① |②---|
②口口口
口②②口
15
口口口口 |①---|
口口口口 |--②-|
口①①口 |--|
口②②①
16
口②③口 |--①-|
口①①口 |--②-|
口②③口 |--③-|
口口口口 |----|
17
①口口① |①---|
口③④口 |②---|
口④③口 |③-④-|
②③④② |----|
18
口口口② |--①-|
①②口口 |--②-|
口口①②
①口口口

③口口口
口口③口
③④④口 |--③-|
口口口口 |--④-|
19
口口口口 |----|
口口口口 |①---|
口口口口
口①①口

②③③②
口口口口
口口口口 |②---|
④口④口 |③-④-|
20
口③③口 |--①-|
②④②④ |--②-|
口①口① |③---|
口口口口 |--④-|
21
②口②口 |--①-|
口口口口 |②---|
口口口口 |----|
口①口① |----|
22
口口口口 |----|
口口口口 |----|
口口口口
口口口口
23
口口口口 |①---|
①口③① |②-③-|
口②③口
口②口口
24
口口口④ |--①-|
口口口口 |--②-|
①③口① |③-④-|
口口②口
25
口口口口 |①---|
口①口口 |②-③-|
②口口③
口口口口
26
口①①口 |--①-|
口口口口 |--②-|
口口口口 |--|
②口口②
27
①⑦②⑥ |①-②③|
口③⑧口 |④⑤⑥-|
①⑨④⑥ |⑦⑧⑨⑩|
口⑤⑩口
28
①口口口 |①---|
口口口口 |----|
①口口口 |--|
口口口口
29
口口口口 |①---|
口②②口 |--②-|
口口口口 |----|
口①①口 |----|
30
①④③① |①---|
口口②口 |--②-|
③①口④ |--③-|
②口口② |--④-|
31
①⑩口⑥ |①②③④|
⑤⑦②口 |-⑤⑥⑦|
口③⑧口 |⑧⑨-⑩|
口⑨④口
32
②口①口 |①-②-|
口⑤⑤③ |③-④-|
口口口口 |⑤--⑥|
④⑥⑥口
33
口口口口 |-①②③|
口口口口 |④---|
①②③④
口口口口
34
口⑥⑦口 |①②③④|
⑧③④⑧ |-⑤-⑥|
口口口口 |⑦-⑧-|
①口⑤②
35
②④⑥② |①-②-|
口③③口 |③-④⑤|
⑤①①⑤ |-⑥|
口口口口
36
②口口② |①-②-|
口③④口 |--③-|
口③④口 |④-|
口①①口
37
口⑥⑥口 |①②③④|
口口口口 |⑤--⑥|
⑤口口口
①②③④
38
⑧⑨口口 |-①②③|
④⑤⑥⑦ |④⑤⑥⑦|
口③②① |⑧⑨|
口口口口
39
口口①① |--①-|
④④口③ |-②-③|
⑥口⑤口 |④-⑤⑥|
口口口②
40
①口②② |-①②-|
口口口口 |③④⑤⑥|
口⑥口口
③④⑤口

口⑨⑨口
口口口口
口口⑦⑧ |⑦⑧--|
⑩口口⑩ |⑨-⑩-|
41
②口口② |①-②-|
口①①口 |③④-⑤|
口⑤口口
口③④口

⑪口口口
⑦⑧⑨⑩
口口⑥口 |⑥⑦⑧⑨|
⑫口口口 |⑩⑪-⑫|
42
口口口口 |①②③④|
口⑦⑧口 |⑤⑥⑦⑧|
③④⑤⑥
口①②口
43
口②③口 |--①-|
⑥口口⑥ |②③-④|
⑤口口⑤ |-⑤-⑥|
①④④①
44
①口口① |-①-②|
口②③口 |③④⑤-|
⑦④⑤⑦ |⑥-⑦-|
⑥口口⑥
45
②口口② |①-②-|
①③④① |③④⑤⑥|
口⑤⑥口
口口口口

⑨⑧⑧⑨
口口口口
⑨口口⑨ |-⑦-⑧|
口⑦⑦口 |-⑨|
46
⑦口口⑦ |--①②|
①②③④ |③④-⑤|
口⑥⑥口 |-⑥-⑦|
口⑤⑤口 |--|
47
口①②口 |①②③④|
③④⑤⑥ |⑤⑥⑦⑧|
⑦⑧口口
口口口口

⑮⑮⑮⑮
口口口口
口口⑨⑩ |⑨⑩⑪⑫|
⑪⑫⑬⑭ |⑬⑭-⑮|
48
口口口口 |----|
口口口口 |----|
口口口口 |----|
口口口口 |----|
49
①①④④ |--①-|
⑤⑤口口 |-②--|
口口口口 |③-④-|
③③②② |-⑤--|
50
⑥⑥⑤⑤ |①-②-|
口口③③ |-③--|
②②①① |④-⑤-|
④④口口 |-⑥--|
51
口口口口 |①-②-|
②③②③ |-③--|
③②③②
口口①①

⑤⑥口口
口口口口
口口口口 |---④|
口④④口 |--⑤⑥|
52
口口①② |①②③-|
口⑤④口 |④⑤-⑥|
口⑥口口
③口口口

⑨口口⑨
口口口口
口口⑦口 |⑦---|
口⑧⑧口 |⑧-⑨-|
53
口②②口 |①---|
口口口口 |②-③-|
①③③①
口口口口

口口口口
口④⑤口
⑥口口⑦ |④⑤-⑥|
⑧⑨口口 |⑦-⑧⑨|
54
③④⑤⑥ |①②-③|
⑦⑧⑨口 |④⑤⑥⑦|
⑬⑫⑪⑩ |⑧⑨-⑩|
口口①② |⑪⑫⑬-|
55
③④⑤口 |①②-③|
⑥⑦口口 |④⑤⑥⑦|
口口口口
口②①口

⑭口口口
口口⑧⑨
⑩⑪⑫⑬ |⑧⑨⑩⑪|
口口口口 |⑫⑬⑭-|
56
⑧⑨口口 |①--②|
口③③口 |-③-④|
⑦⑥⑤④ |⑤⑥⑦-|
②①①② |--⑧⑨|
57
口口①② |①②③-|
③口口口 |④-⑤⑥|
⑤⑥口口
口④④口

口⑪⑪口
⑩⑨口⑩
口口⑦⑧ |⑦⑧⑨-|
口口口口 |⑩--⑪|
58
②口口① |--①-|
口口口口 |-②--|
口③③口 |③---|
①口口② |----|
59
⑦①④⑦ |--①②|
①⑥⑥④ |-③--|
⑤③③② |④⑤-⑥|
⑧⑤②⑧ |--⑦⑧|
60
口①口口 |-①--|
①口口口 |----|
口口口① |----|
口口①口 |----|


不確定度: 0

最終更新:2013年10月17日 16:03