Show up ! - short ver -
3 Majesty

BASIC

Level: 2
BPM: 132
Notes: 161

1
口口口口 |----|
口口口口 |----|
口口口口 |----|
口口口口 |----|
2
口口口口 |----|
口口口口 |----|
口口口口 |----|
口口口口 |----|
3
③口口③ |①-②-|
口口口口 |③---|
口①②口 |----|
口口口口 |----|
4
口③口口 |----|
口口口口 |----|
口口②口 |--①-|
口①口口 |②-③-|
5
口口①口 |----|
口②口口 |----|
口口③口 |--①-|
口口口口 |②-③-|
6
口口口口 |----|
口口口口 |①--②|
口口口口 |----|
口①②口 |----|
7
①②③④ |①---|
口口口口 |②---|
口口口口 |③---|
口口口口 |④---|
8
口口口口 |①---|
①口口② |②---|
口③④口 |③---|
口口口口 |④---|
9
口口口口 |①---|
口口口口 |②---|
口口口口 |③---|
①②③④ |④---|
10
③口口③ |①---|
口②②口 |②---|
口①①口 |③---|
口口口口 |----|
11
口口口口 |--①-|
③口口③ |--②-|
②口口② |--③-|
①口口① |--|
12
①口口① |①---|
口②③口 |②-③-|
口口口口 |--|
口口口口
13
口口口口 |----|
口口口口 |①---|
①①②② |②---|
口口口口 |--|
14
口口口口 |①---|
①口口① |②---|
②口口②
口口口口
15
口口口口 |①---|
口口口口 |--②-|
口②②口 |--|
①口口①
16
③口口③ |--①-|
②口口② |--②-|
①口口① |--③-|
口口口口 |----|
17
口①①口 |①---|
口③④口 |②---|
口②②口 |③-④-|
口口口口 |----|
18
①口口① |--①-|
②口口② |--②-|
③口口③ |--③-|
④口口④ |--④-|
19
口口口口 |----|
口②②口 |①---|
③①①③ |②---|
口口口口 |--③-|
20
④②③④ |--①-|
①口口① |--②-|
口口口口 |③---|
口口口口 |--④-|
21
口口口口 |--①-|
口①②口 |②---|
口口口口 |----|
口口口口 |----|
22
口口口口 |----|
口口口口 |----|
口口口口
口口口口
23
口①①口 |①---|
口口口口 |----|
口口口口
口口口口
24
口口口口 |①---|
①口口口 |②---|
口②③口 |③---|
口口口口
25
口口口口 |①---|
口②②① |--②-|
口口口口
口口口口
26
口口口口 |----|
口口口口 |----|
口口口口 |--|
口口口口
27
口口口口 |①---|
①①②② |--②-|
口口口口 |----|
口口口口
28
①口口① |①---|
口口口口 |----|
口口口口 |--|
口口口口
29
口②②口 |①---|
口口口口 |--②-|
口口口口 |----|
口①①口 |----|
30
口口口口 |①---|
①④④① |--②-|
②口口② |--③-|
口③③口 |--④-|
31
口口口口 |①---|
口口口口 |--②-|
口①②口 |----|
口口口口
32
口口口口 |①---|
口③③口 |②---|
口③③口 |③---|
①口口②
33
口口口口 |----|
口口口口 |①---|
口口口口
口①①口
34
①口口② |①-②-|
③口口④ |③-④-|
⑤口口⑥ |⑤-⑥-|
口口口口
35
口口口口 |①-②-|
口口口口 |③---|
口④④口 |④-|
①③③②
36
①②②① |--①-|
口口口口 |--②-|
口口口口 |--|
口口口口
37
②口口口 |----|
口口口口 |①--②|
口口口口
口①①口
38
口口口① |-①-②|
②口口③ |-③-④|
④口口⑤ |-⑤|
口口口口
39
口口口口 |--①-|
口口口口 |----|
口②②口 |②---|
口①①口
40
口口口口 |--①-|
口①①口 |----|
②口口② |----|
口口口口 |②---|
41
口①①口 |--①-|
⑦②③口 |②-③-|
口④⑤口 |④-⑤-|
口⑥口口 |⑥--⑦|
42
口口口口 |-①-②|
口口口① |-③-④|
②口口③
④口口口
43
口口口口 |--①-|
②口口② |-②--|
口①①口 |----|
口口口口
44
口口口口 |-①--|
口①①口 |----|
口①①③ |②-③-|
②口口口
45
口口口② |①-②-|
①口口口 |----|
口口口口
口口口口

④口口④
口口口口
口③③口 |-③--|
口口口口 |-④|
46
口口口口 |----|
②口口② |---①|
口口口口 |---②|
口①①口 |--|
47
口①②口 |--①-|
⑦③④⑦ |②-③-|
口⑤⑥口 |④-⑤-|
口口口口 |⑥--⑦|
48
口口口口 |----|
口口口口 |----|
口口口口 |----|
口口口口 |----|
49
口口口口 |----|
口口口口 |----|
口口口口 |----|
口口口口 |----|
50
口口口口 |----|
口口口口 |----|
口口口口 |----|
口口口口 |----|
51
口口口口 |--①-|
①②②① |-②--|
①②②① |---③|
③口口④ |--④-|
52
口口口口 |--①-|
口②②口 |----|
口①①口 |②---|
③③口口 |③---|
53
②②口口 |①---|
口口③③ |②---|
口口口口 |----|
口口①① |③---|
54
①口口② |---①|
①④④② |--②-|
口口口口 |-③--|
口③③口 |--④-|
55
①口口① |-①--|
口口口口 |--②-|
②口口口 |--③-|
口③④口 |--④-|
56
③口口口 |----|
口口口① |--①-|
口口②口 |--②-|
口口口口 |--③-|
57
口口口② |--①-|
口①口口 |--②-|
口口口口
口口口口

口口口口
口④④口
口③③口 |----|
口口口口 |③--④|
58
①口口① |--①-|
②口口② |-②--|
③口口③ |③---|
口口口口 |----|
59
口口口口 |--①-|
口③③口 |----|
口口口口 |②---|
①①②② |--③-|
60
①①①① |-①--|
口口口口 |----|
口口口口 |----|
口口口口 |----|


不確定度: 0

最終更新:2013年10月17日 16:01