Show up ! - short ver -
3 Majesty

ADVANCED

Level: 5
BPM: 132
Notes: 325

1
口口口口 |----|
口口口口 |----|
口口口口 |----|
口口口口 |----|
2
口口口口 |----|
口口口口 |----|
口口口口 |----|
口口口口 |----|
3
口口口口 |----|
②口口② |----|
①口口① |①---|
口口口口 |②---|
4
①口口① |①---|
口口口口 |--②-|
口②③口 |③---|
④口口口 |--④-|
5
口口口口 |--①-|
④⑤⑥⑦ |②-③-|
口③②① |④-⑤-|
口口口口 |⑥-⑦-|
6
①口口① |①---|
口口口口 |--②-|
口③②口 |③---|
口口口④ |--④-|
7
口口口口 |--①-|
⑦⑥⑤④ |②-③-|
①②③口 |④-⑤-|
口口口口 |⑥-⑦-|
8
口①①口 |①---|
口口口口 |②-③-|
口②⑤口 |--④-|
口④③口 |⑤---|
9
口①口口 |--①-|
口口②④ |②---|
③口口口 |③---|
口口口口 |④---|
10
①口口① |①---|
口口口口 |②-③-|
口②口口
口口③口

⑤口口⑤
口④④口
口口口口 |--④-|
口口口口 |⑤---|
11
口口口口 |----|
口口口口 |----|
口口口口 |----|
口口口口 |----|
12
①②③④ |①-②-|
口口口口 |③-④-|
口口口口 |----|
口⑤⑥口 |⑤-⑥-|
13
②口口② |--①-|
口①口口 |--②-|
口口口口 |----|
口口口口 |----|
14
④③②① |①-②-|
口口口口 |③-④-|
口口口口 |----|
口⑥⑤口 |⑤-⑥-|
15
②口口② |--①-|
口口①口 |--②-|
口口口口 |----|
口口口口 |----|
16
①②③④ |①-②-|
口口口口 |③-④-|
口口口口 |----|
口⑤⑥口 |⑤-⑥-|
17
②口口② |--①-|
口①口口 |--②-|
口口口口 |----|
口口口口 |----|
18
④③②① |①-②-|
口口口口 |③-④-|
口口口口 |--⑤-|
口⑥口⑤ |--⑥-|
19
口口口口 |--①-|
口口①口 |--②-|
②口口② |----|
口口口口 |----|
20
口口口口 |--①-|
口⑥③口 |②-③-|
口②⑤口 |--④-|
①口口④ |⑤-⑥-|
21
④口口口 |--①-|
口口口⑤ |②-③-|
口②口口 |--④-|
①口③口 |--⑤-|
22
口口口口 |--①-|
口⑥⑤④ |②-③-|
①②③口 |--④-|
口口口口 |⑤-⑥-|
23
口口口口 |--①-|
口④口口 |②-③-|
口口④口 |--④-|
①②③口 |----|
24
口口口口 |--①-|
口③⑥口 |②-③-|
口⑤②口 |--④-|
④口口① |⑤-⑥-|
25
口口口④ |--①-|
⑤口口口 |②-③-|
口口②口 |--④-|
口③口① |--⑤-|
26
口口口口 |--①-|
⑤⑥⑦口 |②-③-|
④③②① |④-⑤-|
口口口口 |⑥-⑦-|
27
口口口口 |----|
口口口口 |----|
口口口口 |----|
口口口口 |----|
28
口口口口 |--①-|
口⑥③口 |②-③-|
口②⑤口 |--④-|
①口口④ |⑤-⑥-|
29
④口口口 |--①-|
口口口⑤ |②-③-|
口②口口 |--④-|
①口③口 |--⑤-|
30
口口口口 |--①-|
口⑥⑤④ |②-③-|
①②③口 |--④-|
口口口口 |⑤-⑥-|
31
口口口口 |--①-|
口口口口 |②-③-|
③口口③ |----|
口①②口 |----|
32
口口口口 |--①-|
口③⑥口 |②-③-|
口⑤②口 |--④-|
④口口① |⑤-⑥-|
33
口口口④ |--①-|
⑤口口口 |②-③-|
口口②口 |--④-|
口③口① |--⑤-|
34
口口口口 |--①-|
⑥口口⑥ |--②-|
口⑤④① |③-④-|
口②③口 |⑤-⑥-|
35
口口口口 |----|
口①②③ |----|
口口口口 |--①-|
口口口口 |②-③-|
36
口口口口 |--①-|
⑤④③口 |--②-|
口口①口 |--③-|
口口②口 |④-⑤-|
37
口口口口 |--①-|
口口④③ |--②-|
口①⑤口 |--③-|
口②口口 |④-⑤-|
38
口口口口 |--①-|
①②口口 |②-③-|
口③口口
口口口口

口口⑥口
⑤口口口
口口口④ |--④-|
口口口口 |⑤-⑥-|
39
①口口口 |----|
③④⑤口 |①-②-|
口口口② |--③-|
口口口口 |④-⑤-|
40
口口口口 |--①-|
口⑤④③ |--②-|
口①口口 |--③-|
口②口口 |④-⑤-|
41
口口口口 |--①-|
⑤口口口 |②---|
口②①④ |③--④|
③口口口 |--⑤-|
42
①口口① |①---|
口②②口 |--②-|
口③③口 |③---|
口口口口 |----|
43
口口口口 |----|
②口口② |----|
①口口① |①---|
口口口口 |②---|
44
①口口① |①---|
口口口口 |--②-|
口②③口 |③---|
④口口口 |--④-|
45
口口口口 |--①-|
④⑤⑥⑦ |②-③-|
口③②① |④-⑤-|
口口口口 |⑥-⑦-|
46
①口口① |①---|
口口口口 |--②-|
口③②口 |③---|
口口口④ |--④-|
47
口口口口 |--①-|
⑦⑥⑤④ |②-③-|
①②③口 |④-⑤-|
口口口口 |⑥-⑦-|
48
口①①口 |①---|
口口口口 |②-③-|
口②⑤口 |--④-|
口④③口 |⑤---|
49
口①口口 |--①-|
口口②口 |②---|
③④口口 |③-④-|
口口口口 |----|
50
①口口① |①---|
口口口口 |②-③-|
口②口口
口口③口

⑤口口⑤
口④④口
口口口口 |--④-|
口口口口 |⑤---|
51
口口口口 |----|
②口口② |----|
①口口① |①---|
口口口口 |②---|
52
①④④① |①---|
口口口口 |--②-|
口③②口 |③---|
口口口口 |--④-|
53
口口口口 |--①-|
口口口口 |②-③-|
①②③口 |④-⑤-|
⑦⑥⑤④ |⑥-⑦-|
54
口口口口 |①---|
口①①口 |②-③-|
②口口③
口口口口

⑤口口⑤
口④④口
口口口口 |--④-|
口口口口 |⑤---|
55
口口口口 |----|
口①①口 |----|
口②②口 |①---|
口口口口 |②---|
56
⑧口口⑦ |①-②-|
⑥口口⑤ |③-④-|
④口口③ |⑤-⑥-|
②口口① |⑦-⑧-|
57
⑤②①⑤ |①-②-|
⑦④③⑦ |③-④-|
口⑥⑥口 |⑤---|
口口口口 |⑥-⑦-|
58
口口口口 |----|
口口口口 |----|
口口口口 |----|
口口口口 |----|
59
口口口口 |----|
口口口口 |----|
口口口口 |----|
口口口口 |----|
60
④③②① |①-②-|
口口口口 |③-④-|
口口口口 |----|
口⑥⑤口 |⑤-⑥-|
61
②口口② |--①-|
口口①口 |--②-|
口口口口 |----|
口口口口 |----|
62
①②③④ |①-②-|
口口口口 |③-④-|
口口口口 |----|
口⑤⑥口 |⑤-⑥-|
63
②口口② |--①-|
口①口口 |--②-|
口口口口 |----|
口口口口 |----|
64
④③②① |①-②-|
口口口口 |③-④-|
口口口口 |--⑤-|
口⑥口⑤ |--⑥-|
65
口口口口 |--①-|
口口①口 |--②-|
②口口② |----|
口口口口 |----|
66
①①①① |①---|
口口口口 |----|
口口口口 |----|
口口口口 |----|


不確定度: 0

最終更新:2013年10月17日 16:00