Show up ! - short ver -
3 Majesty

EXTREME

Level: 8
BPM: 132
Notes: 516

1
口口口口 |----|
口口口口 |----|
口口口口 |----|
口口口口 |----|
2
口口口① |①---|
②口口口 |--②-|
口口口③ |----|
口口口口 |③---|
3
口口口口 |--①-|
②口口③ |----|
口③②口 |②---|
①口口口 |③---|
4
①口口① |①---|
②口口③ |--②-|
口②③口 |③---|
④口口④ |--④-|
5
口口口口 |--①-|
口⑦②口 |②-③-|
⑥①口③ |④-⑤-|
口⑤④口 |⑥-⑦-|
6
①口口① |①---|
③口口② |--②-|
口③②口 |③---|
④口口④ |--④-|
7
口口口口 |--①-|
口②⑦口 |②-③-|
③口①⑥ |④-⑤-|
口④⑤口 |⑥-⑦-|
8
①口口① |①---|
口口口口 |②-③-|
口②②口
口③③口

⑤口口⑤
④口口④
口口口口 |--④-|
口口口口 |⑤---|
9
口口口口 |--①-|
口①②口 |②---|
④②①④ |③---|
③口口③ |④---|
10
⑤①①⑤ |①---|
口④④口 |②-③-|
口②②口 |--④-|
③口口③ |⑤---|
11
口口口口 |----|
口口口口 |----|
口口口口 |----|
口口口口 |----|
12
①⑤口② |①-②-|
③口⑥④ |③-④-|
口⑦口口 |⑤-⑥-|
口口⑧口 |⑦-⑧-|
13
口口口口 |--①-|
②口③② |--②-|
口④口口 |--③-|
①口口① |④---|
14
②口口① |①-②-|
④口口③ |③-④-|
口口⑤口 |----|
口⑥口口 |⑤-⑥-|
15
口口口口 |--①-|
②口口② |--②-|
口口口口 |----|
①口口① |----|
16
①口⑤② |①-②-|
③⑥口④ |③-④-|
口口⑦口 |⑤-⑥-|
口⑧口口 |⑦-⑧-|
17
口口口口 |--①-|
②口③② |--②-|
口④口口 |--③-|
①口口① |④---|
18
②口口① |①-②-|
④口口③ |③-④-|
口⑥⑥口 |--⑤-|
口⑤⑤口 |--⑥-|
19
口口口口 |--①-|
口①①口 |--②-|
口口口口 |----|
②口口② |----|
20
口口口口 |--①-|
③⑥③⑥ |②-③-|
⑤②⑤② |--④-|
①④①④ |⑤-⑥-|
21
口④④② |--①-|
⑤口③⑤ |②-③-|
口口口口 |--④-|
①口口口 |--⑤-|
22
口口口口 |--①-|
口口口口 |②-③-|
①⑥③④ |--④-|
口②⑤口 |⑤-⑥-|
23
口④④口 |--①-|
口③口① |②-③-|
口口②口 |--④-|
口口口口 |----|
24
口口口口 |--①-|
⑥③⑥③ |②-③-|
②⑤②⑤ |--④-|
④①④① |⑤-⑥-|
25
②④④口 |--①-|
⑤③口⑤ |②-③-|
口口口口 |--④-|
口口口① |--⑤-|
26
口口口口 |--①-|
⑦口口⑦ |②-③-|
口③⑥① |④-⑤-|
④⑤②口 |⑥-⑦-|
27
③③③③ |--①-|
口口口口 |--②-|
①口口② |--③-|
①口口② |----|
28
口口口口 |--①-|
③⑥③⑥ |②-③-|
⑤②⑤② |--④-|
①④①④ |⑤-⑥-|
29
口④④② |--①-|
⑤口③⑤ |②-③-|
口口口口 |--④-|
①口口口 |--⑤-|
30
口口口口 |--①-|
口口口口 |②-③-|
①⑥③④ |--④-|
口②⑤口 |⑤-⑥-|
31
③口口③ |--①-|
口②口口 |②-③-|
口口①口 |----|
口口口口 |----|
32
口口口口 |--①-|
⑥③⑥③ |②-③-|
②⑤②⑤ |--④-|
④①④① |⑤-⑥-|
33
②④④口 |--①-|
⑤③口⑤ |②-③-|
口口口口 |--④-|
口口口① |--⑤-|
34
口口口口 |--①-|
⑥口口⑥ |--②-|
①②⑤① |③-④-|
③④口口 |⑤-⑥-|
35
口⑤⑤口 |--①-|
口④④口 |--②-|
口③③口 |--③-|
②口口① |④-⑤-|
36
①⑤⑤② |--①-|
②④④① |--②-|
口③③口 |--③-|
口口口口 |④-⑤-|
37
②口口① |--①-|
①③⑤② |--②-|
口④④口 |--③-|
口⑤③口 |④-⑤-|
38
口⑥⑥口 |--①-|
③⑤⑤① |②-③-|
②④④② |--④-|
①口口③ |⑤-⑥-|
39
①⑤⑤① |----|
口④④口 |①-②-|
②③③② |--③-|
口口口口 |④-⑤-|
40
②⑤⑤① |--①-|
①④④② |--②-|
口③③口 |--③-|
口口口口 |④-⑤-|
41
②口口② |--①-|
①口口① |②---|
口口口口
口口口口

口口口口
⑤口口⑤
口③④口 |③--④|
③④③④ |--⑤-|
42
①①①① |①---|
口口口口 |--②-|
②②②② |③---|
③③③③ |----|
43
口口口口 |----|
①口口② |----|
口②①口 |①---|
口②①口 |②---|
44
①①①① |①---|
②口口③ |--②-|
口②③口 |③---|
④口口④ |--④-|
45
口口口口 |--①-|
口⑦②口 |②-③-|
⑥①口③ |④-⑤-|
口⑤④口 |⑥-⑦-|
46
①①①① |①---|
③口口② |--②-|
口③②口 |③---|
④口口④ |--④-|
47
口口口口 |--①-|
口②⑦口 |②-③-|
③口①⑥ |④-⑤-|
口④⑤口 |⑥-⑦-|
48
①口口① |①---|
口口口口 |②-③-|
口②②口
口③③口

⑤口口⑤
④口口④
口口口口 |--④-|
口口口口 |⑤---|
49
口口口口 |--①-|
④①②④ |②---|
③②①③ |③-④-|
口口口口 |----|
50
①①①① |①---|
口口口口 |②-③-|
口②②口
③口口③

⑤⑤⑤⑤
口④④口
口口口口 |--④-|
口口口口 |⑤---|
51
口口口口 |----|
②口口① |----|
口①②口 |①---|
口①②口 |②---|
52
①①①① |①---|
口口口② |--②-|
口口②口
口口口口

④口口④
③口口口
口③口口 |③---|
口口口口 |--④-|
53
口口口口 |--①-|
口⑦②口 |②-③-|
⑥①口③ |④-⑤-|
口⑤④口 |⑥-⑦-|
54
①口口① |①---|
⑤⑤⑤⑤ |②-③-|
③②③② |--④-|
口④④口 |⑤---|
55
口口口口 |----|
口①①口 |----|
口②②口 |①---|
口口口口 |②---|
56
④口口① |①-②-|
③口口② |③-④-|
②口口③
①口口④

口⑤⑥⑦
口口口⑧
⑧口口口 |⑤-⑥-|
⑦⑥⑤口 |⑦-⑧-|
57
②③④⑤ |①-②-|
①⑥⑦口 |③-④-|
口⑦⑥① |⑤---|
⑤④③② |⑥-⑦-|
58
①⑤口② |①-②-|
③口⑥④ |③-④-|
口⑦口口 |⑤-⑥-|
口口⑧口 |⑦-⑧-|
59
口口口口 |--①-|
②口③② |--②-|
口④口口 |--③-|
①口口① |④---|
60
②口口① |①-②-|
④口口③ |③-④-|
口口⑤口 |----|
口⑥口口 |⑤-⑥-|
61
口口口口 |--①-|
②口口② |--②-|
口口口口 |----|
①口口① |----|
62
①⑤口② |①-②-|
③口⑥④ |③-④-|
口⑦口口 |⑤-⑥-|
口口⑧口 |⑦-⑧-|
63
口口口口 |--①-|
②口③② |--②-|
口④口口 |--③-|
①口口① |④---|
64
②口口① |①-②-|
④口口③ |③-④-|
口⑥⑥口 |--⑤-|
口⑤⑤口 |--⑥-|
65
口口口口 |--①-|
口①①口 |--②-|
口口口口 |----|
②口口② |----|
66
①口口① |①---|
口①①口 |----|
口口口口 |----|
口口口口 |----|


不確定度: 0

最終更新:2013年10月17日 16:00