CHEAT DANCER - short ver -
X.I.P.

BASIC

Level: 2
BPM: 120
Notes: 147

1
口口口口 |----|
口口口口 |----|
口口口口 |----|
口口口口 |----|
2
口口口口 |----|
口口口口 |----|
口口口口 |----|
口口口口 |----|
3
口口口口 |①---|
口口口口 |----|
口①口口 |----|
口口口口 |----|
4
口口口口 |①---|
口口口口 |----|
口口①口 |----|
口口口口 |----|
5
口口口口 |①---|
口①口口 |----|
口口口口 |----|
口口口口 |----|
6
口口口口 |①---|
口口①口 |----|
口②②口 |②---|
口口口口 |----|
7
口口口口 |①---|
口口②① |----|
口口口口 |②---|
口口口口 |----|
8
口口口口 |①---|
②①口口 |----|
口口口口 |②---|
口口口口 |----|
9
口口口口 |①---|
口口口口 |----|
①②口口 |②---|
口口口口 |----|
10
口口口口 |①---|
口①①口 |----|
口②②口 |②---|
口口口口 |----|
11
口口②口 |①---|
口口口① |----|
口口口口 |②---|
口口口口 |----|
12
口②口口 |①---|
口口①口 |----|
口口口口 |②---|
口口口口 |----|
13
②口口口 |①---|
口①口口 |----|
口口口口 |②---|
口口口口 |----|
14
口口口口 |①---|
口①②口 |②---|
口④③口 |③---|
口口口口 |④---|
15
口②口口 |①---|
①口口口 |----|
口口口口 |②---|
口口口口 |----|
16
口口②口 |①---|
口①口口 |----|
口口口口 |②---|
口口口口 |----|
17
口口口② |①---|
口口①口 |----|
口口口口 |②---|
口口口口 |----|
18
口口口口 |①---|
口②①口 |②---|
③口口③ |③---|
口口口口 |----|
19
口②②口 |①---|
口①①口 |----|
口口口口 |②---|
口口口口 |----|
20
口口口口 |①---|
口①②口 |②---|
口口口③ |③---|
口口口口 |----|
21
口②②口 |①---|
口①①口 |----|
口口口口 |②---|
口口口口 |----|
22
口口口口 |①---|
口②①口 |②---|
③口口口 |③---|
口口口口 |----|
23
口口口口 |①---|
口①口口 |②---|
口口②口 |③---|
口③④口 |④---|
24
③口口③ |①---|
口口②口 |②---|
口①口口 |③---|
口口口口 |----|
25
口口口口 |----|
口口口口 |----|
口口口口 |----|
口口口口 |----|
26
②口口② |①---|
口①①口 |----|
口口口口 |②---|
口口口口 |----|
27
口口口口 |①---|
口①②口 |②---|
③口口③ |③---|
口口口口 |----|
28
②口口② |①---|
口①①口 |----|
口口口口 |②---|
口口口口 |----|
29
口口口口 |①---|
口②①口 |②---|
③口口③ |③---|
口口口口 |----|
30
②口口② |①---|
口①①口 |----|
口口口口 |②---|
口口口口 |----|
31
口③③口 |①---|
口①②口 |②---|
口口口口 |③---|
口口口口 |----|
32
②口口② |①---|
口①①口 |----|
口口口口 |②---|
口口口口 |----|
33
口口口口 |①---|
口②①口 |②---|
③口口③ |③---|
口口口口 |----|
34
口口口口 |①---|
口①口口 |②---|
口口②口 |③---|
口③③口 |----|
35
口口口口 |①---|
口②②口 |----|
口①①口 |②---|
口口口口 |----|
36
口口①口 |①---|
口②口口 |②---|
口口③口 |③---|
口④口口 |④---|
37
④④④④ |①---|
口口③口 |②---|
口②口口 |③---|
口口①口 |④---|
38
口口口口 |①---|
①②③④ |②---|
口口口口 |③---|
口口口口 |④---|
39
口口口口 |①---|
口口口口 |②---|
④③②① |③---|
口口口口 |④---|
40
口口口口 |①---|
①②③④ |②---|
口口口口 |③---|
口口口口 |④---|
41
口口口口 |①---|
口口口口 |----|
②①①② |②---|
口口口口 |----|
42
④口口口 |①---|
③口口口 |②---|
②口口口 |③---|
①口口口 |④---|
43
口①②③ |①---|
口口口④ |②---|
口口口口 |③---|
口口口口 |④---|
44
口口口口 |①---|
口口口口 |②---|
口口口① |③---|
口④③② |④---|
45
口口口口 |①---|
口口口口 |----|
②①①② |②---|
口口口口 |----|
46
②②②② |①---|
口①①口 |--②-|
口口口口 |----|
口口口口 |----|


不確定度: 0

最終更新:2013年10月17日 16:00