CHEAT DANCER - short ver -
X.I.P.

ADVANCED

Level: 5
BPM: 120
Notes: 343

1
口口口口 |----|
口口口口 |----|
口口口口 |----|
口口口口 |----|
2
口口口口 |----|
口口口口 |----|
口口口口 |----|
口口口口 |----|
3
口④口③ |①---|
口口⑤② |②-③-|
口①①口 |--④-|
口口口口 |⑤---|
4
③口④口 |①---|
②⑤口口 |②-③-|
口①①口 |--④-|
口口口口 |⑤---|
5
口④口③ |①---|
口口⑤② |②-③-|
口①①口 |--④-|
口口口口 |⑤---|
6
口口口口 |①--②|
口口口口 |--③-|
①①②②
③③口口

口口口口
口⑤口口
口口⑥口 |-④--|
口口④④ |⑤⑥--|
7
口⑤⑥口 |①-②-|
③⑦⑧④ |③-④-|
①口口② |⑤-⑥-|
口口口口 |⑦-⑧-|
8
①口口① |①---|
口口口口 |--②-|
②③口② |----|
口口③口 |③---|
9
口口口口 |①---|
①①③③ |②---|
口口口口 |③---|
②②④④ |④---|
10
口口口口 |①--②|
口口口口 |--③-|
①①②②
③③口口

口口口口
口⑤口口
口口⑥口 |-④--|
口口④④ |⑤⑥--|
11
①②③⑤ |--①-|
口口④口 |②-③-|
⑥口口口 |④-⑤-|
口口口口 |⑥---|
12
口④口口 |--①-|
⑤③②① |②-③-|
口口口⑥ |④-⑤-|
口口口口 |⑥---|
13
①②③⑤ |--①-|
口口④口 |②-③-|
口⑥口口 |④-⑤-|
口口口口 |--⑥-|
14
口口①口 |①-②-|
⑦②口⑦ |③-④-|
口⑥③口 |⑤-⑥-|
口④⑤口 |⑦---|
15
⑤③②① |--①-|
口④口口 |②-③-|
口口口⑥ |④-⑤-|
口口口口 |⑥---|
16
口口④口 |--①-|
①②③⑤ |②-③-|
⑥口口口 |④-⑤-|
口口口口 |⑥---|
17
⑤③②① |--①-|
口④口口 |②-③-|
口口⑥口 |④-⑤-|
口口口口 |--⑥-|
18
口①口口 |①-②-|
口⑥②口 |③-④-|
⑦③⑥口 |⑤-⑥-|
口⑤④口 |--⑦-|
19
②口口口 |①-②-|
口③③① |--③-|
口口口口
口口口口

口口口口
口口口⑥
⑤口口口 |--④-|
口口口④ |⑤-⑥-|
20
口⑤⑤口 |--①-|
口④②口 |②-③-|
口①③⑥ |④-⑤-|
口口口口 |--⑥-|
21
口口口② |①-②-|
①③③口 |--③-|
口口口口
口口口口

口口口口
⑥口口口
口口口⑤ |--④-|
④口口口 |⑤-⑥-|
22
口⑤⑤口 |--①-|
口②④口 |②-③-|
⑥③①口 |④-⑤-|
口口口口 |--⑥-|
23
口口口口 |①-②-|
④⑤③② |③-④-|
口①⑦⑥ |⑤-⑥-|
⑧口口口 |⑦-⑧-|
24
口口口口 |①-②-|
口⑥⑥口 |③-④-|
④⑤口口 |⑤-⑥-|
口①③② |----|
25
③③口口 |----|
口口口口 |----|
口口口口 |①---|
②①①② |②-③-|
26
⑥口③③ |①-②-|
②②⑤⑤ |--③-|
④④①① |④-⑤-|
口口口口 |--⑥-|
27
⑧⑧口⑦ |①-②③|
口①⑥口 |-④⑤-|
④口口② |⑥-⑦-|
口⑤③口 |--⑧-|
28
⑥口③③ |①-②-|
②②⑤⑤ |--③-|
④④①① |④-⑤-|
口口口口 |--⑥-|
29
口口⑧⑧ |①-②③|
口①⑥口 |-④⑤-|
④口⑦② |⑥-⑦-|
口⑤③口 |--⑧-|
30
③③口⑥ |①-②-|
⑤⑤②② |--③-|
①①④④ |④-⑤-|
口口口口 |--⑥-|
31
⑦口⑧⑧ |①-②③|
口⑥①口 |-④⑤-|
②口口④ |⑥-⑦-|
口③⑤口 |--⑧-|
32
③③口⑥ |①-②-|
⑤⑤②② |--③-|
①①④④ |④-⑤-|
口口口口 |--⑥-|
33
口口口口 |①-②③|
口口①口 |-④⑤-|
②口口④
口③⑤口

口口口口
口⑥口口
口⑦口⑧ |⑥-⑦-|
口口口口 |--⑧-|
34
口口口口 |①-②-|
②③口④ |③-④-|
口口①口
口口口口

口口口⑦
口口⑤口
口⑥⑥口 |⑤-⑥-|
口口口口 |--⑦-|
35
③口①口 |①-②-|
口口②口 |--③-|
②口口口
口口口口

口④口口
口⑤口口
⑥口口⑤ |④-⑤-|
口口口口 |--⑥-|
36
口口口口 |①-②-|
④⑤③② |③-④-|
口①⑦⑥ |⑤-⑥-|
⑧口口口 |⑦-⑧-|
37
⑤⑤⑤⑤ |①-②-|
④④④④ |③---|
口口口口 |④---|
口①③② |⑤---|
38
口④口③ |①---|
口口⑤② |②-③-|
口①①口 |--④-|
口口口口 |⑤---|
39
③口④口 |①---|
②⑤口口 |②-③-|
口①①口 |--④-|
口口口口 |⑤---|
40
口④口③ |①---|
口口⑤② |②-③-|
口①①口 |--④-|
口口口口 |⑤---|
41
口口口口 |①--②|
口口口口 |--③-|
①①②②
③③口口

口口口口
口⑤口口
口口⑥口 |-④--|
口口④④ |⑤⑥--|
42
口⑤⑥口 |①-②-|
③⑦⑧④ |③-④-|
①口口② |⑤-⑥-|
口口口口 |⑦-⑧-|
43
①口口① |①---|
口口口口 |--②-|
②③口② |----|
口口③口 |③---|
44
口口口口 |①---|
①①③③ |②---|
口口口口 |③---|
②②④④ |④---|
45
口口口口 |①--②|
口口口口 |--③-|
①①②②
③③口口

口口口口
口⑤口口
口口⑥口 |-④--|
口口④④ |⑤⑥--|
46
口③③口 |①--②|
②③③① |--③-|
①口口② |----|
口口口口 |----|


不確定度: 0

最終更新:2013年10月17日 16:00