CHEAT DANCER - short ver -
X.I.P.

EXTREME

Level: 8
BPM: 120
Notes: 521

1
口口口口 |----|
口口口口 |----|
口口口口 |----|
口口口口 |----|
2
口口口口 |----|
口口口口 |----|
口口口口 |----|
口口口口 |----|
3
口口口口 |①-②-|
口①④口 |③-④-|
口③②口
口口口口

口口⑦口
口⑥口⑧
⑤口口⑨ |--⑤⑥|
口口口口 |⑦⑧⑨-|
4
口口口口 |①-②-|
口④①口 |③-④-|
口②③口
口口口口

口⑦口口
⑧口⑥口
⑨口口⑤ |--⑤⑥|
口口口口 |⑦⑧⑨-|
5
口口口口 |①-②-|
口①④口 |③-④-|
口③②口
口口口口

口口⑦口
口⑥口⑧
⑤口口⑨ |--⑤⑥|
口口口口 |⑦⑧⑨-|
6
③①③① |①--②|
②口口④ |--③-|
口⑤⑤口 |-④--|
②⑥⑥④ |⑤⑥--|
7
口口口④ |①-②-|
口③②口 |③-④-|
①口口口
口口口口

口⑪⑫口
⑨⑩口口
口⑧⑦口 |⑤⑥⑦⑧|
口⑤⑥口 |⑨⑩⑪⑫|
8
口④⑤① |①---|
口③⑥① |--②-|
②口口口 |----|
②口口口 |③④⑤⑥|
9
口口口口 |①②③④|
⑧口口① |⑤⑥⑦⑧|
⑥②⑦③
口④⑤口

口口口⑨
口⑩口⑪
⑯⑫口⑬ |⑨⑩⑪⑫|
⑭口⑮口 |⑬⑭⑮⑯|
10
①③①③ |①--②|
④口口② |--③-|
口⑤⑤口 |-④--|
④⑥⑥② |⑤⑥--|
11
①口口② |--①②|
③⑨⑨④ |③④⑤⑥|
⑤口⑧⑥ |⑦-⑧-|
口⑦口口 |⑨---|
12
②⑨⑨① |--①②|
④口口③ |③④⑤⑥|
⑥⑧口⑤ |⑦-⑧-|
口口⑦口 |⑨---|
13
①口口② |--①②|
③口口④ |③④⑤⑥|
⑤口⑧⑥ |⑦-⑧-|
⑨⑦口⑨ |--⑨-|
14
口①①口 |①-②-|
②②③③ |③-④-|
口④④口
口口口口

口⑦⑦口
口口口口
⑦口口⑦ |⑤-⑥-|
⑤⑤⑥⑥ |⑦---|
15
②口口① |--①②|
④⑨⑨③ |③④⑤⑥|
⑥⑧口⑤ |⑦-⑧-|
口口⑦口 |⑨---|
16
①⑨⑨② |--①②|
③口口④ |③④⑤⑥|
⑤口⑧⑥ |⑦-⑧-|
口⑦口口 |⑨---|
17
②口口① |--①②|
④口口③ |③④⑤⑥|
⑥⑧口⑤ |⑦-⑧-|
⑨口⑦⑨ |--⑨-|
18
口①①口 |①-②-|
③③②② |③-④-|
口④④口
口口口口

口⑥⑥口
⑦口口⑦
⑥口口⑥ |⑤-⑥-|
口⑤⑤口 |--⑦-|
19
①③③② |①-②-|
④①②⑥ |--③-|
④口口⑥ |--④-|
口⑤⑤口 |⑤-⑥-|
20
口口口口 |--①②|
⑦①②⑦ |③-④-|
口③⑥口 |⑤-⑥-|
⑤⑥口④ |--⑦-|
21
②③③① |①-②-|
⑥②①④ |--③-|
⑥口口④ |--④-|
口⑤⑤口 |⑤-⑥-|
22
口口口口 |--①-|
口①口口 |②-③-|
口口②口
口③口口

口口口口
口⑥口口
⑤⑤⑥口 |④-⑤-|
口口④④ |--⑥-|
23
③④②① |①-②-|
⑤⑥⑧⑦ |③-④-|
⑦⑧⑥⑤ |⑤-⑥-|
①②④③ |⑦-⑧-|
24
口①②③ |①-②-|
⑥⑥⑤④ |③-④-|
④⑤⑥⑥ |⑤-⑥-|
③②①口 |----|
25
③口③口 |----|
②②②② |----|
①①①① |①---|
口口口口 |②-③-|
26
口③口③ |①-②-|
口口口口 |--③-|
②口②口
口①口①

口口口口
口口口口
口⑤口⑤ |④-⑤-|
④⑥④⑥ |--⑥-|
27
口①口① |①-②③|
口②⑥口 |-④⑤⑥|
③口口⑤
口口④口

⑧⑨口⑨
⑧口口口
口⑦口口 |⑦-⑧-|
口口口口 |--⑨-|
28
③口③口 |①-②-|
口口口口 |--③-|
口②口②
①口①口

口口口口
口口口口
⑤口⑤口 |④-⑤-|
⑥④⑥④ |--⑥-|
29
口①④① |①-②③|
③口口⑤ |-④⑤-|
口②口口
口口口口

⑧口⑧口
口⑦⑥口
⑥口口⑦ |⑥-⑦-|
口口口口 |--⑧-|
30
口③口③ |①-②-|
口口口口 |--③-|
②口②口
口①口①

口口口口
口口口口
口⑤口⑤ |④-⑤-|
④⑥④⑥ |--⑥-|
31
①口①口 |①-②③|
口②⑥⑤ |-④⑤⑥|
③口④口
口口口口

⑨⑦⑨口
⑦口口口
口口口⑧ |⑦-⑧-|
口口⑧口 |--⑨-|
32
口③口③ |①-②-|
口口口口 |--③-|
②口②口
口①口①

口口口口
口口口口
口⑤口⑤ |④-⑤-|
④⑥④⑥ |--⑥-|
33
口①口① |①-②③|
口②口口 |-④⑤-|
③口口⑤
口口④口

⑥口口口
口⑧⑥口
口⑦⑧口 |⑥-⑦-|
口口口⑦ |--⑧-|
34
③④②① |①-②-|
口口口口 |③-④-|
口口口口
①②④③

口口⑦口
⑤⑥口口
口口⑥⑤ |⑤-⑥-|
口⑦口口 |--⑦-|
35
②①口③ |①-②-|
②口口口 |--③-|
口口口②
③口①②

口⑤口口
口⑥⑤④
④⑤⑥口 |④-⑤-|
口口⑤口 |--⑥-|
36
③④②① |①-②-|
⑤⑥⑧⑦ |③-④-|
⑦⑧⑥⑤ |⑤-⑥-|
①②④③ |⑦-⑧-|
37
④①②③ |①-②-|
⑤③④⑤ |③---|
⑤④③⑤ |④---|
③②①④ |⑤---|
38
口口口口 |①-②-|
口①④口 |③-④-|
口③②口
口口口口

口口⑦口
口⑥口⑧
⑤口口⑨ |--⑤⑥|
口口口口 |⑦⑧⑨-|
39
口口口口 |①-②-|
口④①口 |③-④-|
口②③口
口口口口

口⑦口口
⑧口⑥口
⑨口口⑤ |--⑤⑥|
口口口口 |⑦⑧⑨-|
40
口口口口 |①-②-|
口①④口 |③-④-|
口③②口
口口口口

口口⑦口
口⑥口⑧
⑤口口⑨ |--⑤⑥|
口口口口 |⑦⑧⑨-|
41
③①③① |①--②|
②口口④ |--③-|
口⑤⑤口 |-④--|
②⑥⑥④ |⑤⑥--|
42
口口口④ |①-②-|
口③②口 |③-④-|
①口口口
口口口口

口⑪⑫口
⑨⑩口口
口⑧⑦口 |⑤⑥⑦⑧|
口⑤⑥口 |⑨⑩⑪⑫|
43
口④⑤① |①---|
口③⑥① |--②-|
②口口口 |----|
②口口口 |③④⑤⑥|
44
口口口口 |①②③④|
⑧口口① |⑤⑥⑦⑧|
⑥②⑦③
口④⑤口

口口口⑨
口⑩口⑪
⑯⑫口⑬ |⑨⑩⑪⑫|
⑭口⑮口 |⑬⑭⑮⑯|
45
①③①③ |①--②|
④口口② |--③-|
口⑤⑤口 |-④--|
④⑥⑥② |⑤⑥--|
46
①③③② |①--②|
②③③① |--③-|
①③③② |----|
②口口① |----|


不確定度: 0

最終更新:2013年10月17日 15:59