切ないほど
ゴールデンボンバー

BASIC

Level: 3
BPM: 139
Notes: 212

1
口口口口 |----|
口口口口 |----|
口口口口 |----|
口口口口 |----|
2
口口口口 |----|
口②②口 |----|
口①①口 |①---|
口口口口 |②---|
3
口①①口 |①---|
②口口② |----|
口口口口 |②---|
口口口口 |----|
4
口口口口 |①---|
口口口口 |----|
①口口① |②---|
②口口② |----|
5
口口口口 |①---|
口口口口 |----|
口②②口 |②---|
口①①口 |----|
6
口口口口 |①---|
口①①口 |----|
口口口口 |----|
口口口口 |----|
7
口口口口 |①---|
口①①口 |----|
口口口口 |----|
口口口口 |----|
8
口口口口 |----|
口口口口 |----|
口口口口 |----|
口口口口 |----|
9
口口口口 |①---|
口①①口 |----|
口口口口 |----|
口口口口 |----|
10
口口口口 |①---|
口口口口 |----|
③①①③ |②---|
②口口② |③---|
11
口口口③ |①---|
口②口④ |②---|
口①口口 |③---|
口口口口 |④---|
12
③口口口 |①---|
④口②口 |②---|
口口①口 |③---|
口口口口 |④---|
13
口口口③ |①---|
口②口④ |②---|
口①口口 |③---|
口口口口 |④---|
14
口口口口 |①---|
口口口口 |----|
②①①② |②---|
③口口③ |③---|
15
口口口③ |①---|
口②口④ |②---|
口①口口 |③---|
口口口口 |④---|
16
③口口口 |①---|
④口②口 |②---|
口口①口 |③---|
口口口口 |④---|
17
口口口③ |①---|
口②口④ |②---|
口①口口 |③---|
口口口口 |④---|
18
口口口口 |①---|
口口口口 |----|
③①①③ |②---|
②口口② |③---|
19
口口口口 |①---|
口①①口 |----|
口口②口 |②---|
口口口口 |----|
20
口口口口 |①---|
口口口口 |----|
②①口口 |②---|
口口口口 |----|
21
口口口口 |①---|
①②口口 |----|
口口口口 |②---|
口口口口 |----|
22
口口口口 |①---|
口口①口 |----|
口口口口 |----|
口口口口 |----|
23
口口口口 |①---|
口①①口 |----|
口②口口 |②---|
口口口口 |----|
24
口口口口 |①---|
口口口口 |----|
口口①② |②---|
口口口口 |----|
25
口口口口 |①---|
口口②① |----|
口口口口 |②---|
口口口口 |----|
26
口口口口 |①---|
口①口口 |----|
口口口口 |----|
口口口口 |----|
27
口口口口 |①---|
口口口口 |----|
口①①口 |----|
口口口口 |----|
28
口口口口 |①---|
口①①口 |----|
口口口口 |----|
口口口口 |----|
29
口口口口 |①---|
口口口口 |----|
①口口① |----|
口口口口 |----|
30
口口口口 |①---|
①口口① |----|
口口口口 |----|
口口口口 |----|
31
口口口口 |①---|
口口口口 |----|
口①①口 |----|
口口口口 |----|
32
口口口口 |①---|
口①①口 |----|
口口口口 |----|
口口口口 |----|
33
口口口口 |①---|
口口口口 |②---|
①②③④ |③---|
口口口口 |④---|
34
口口口口 |①---|
②①①② |----|
③口口③ |②---|
口口口口 |③---|
35
口口口口 |①---|
口①①口 |----|
口②②口 |②---|
口口口口 |----|
36
口口口③ |①---|
口口口② |②---|
口口口① |③---|
口口口口 |----|
37
口口口口 |①---|
口①①口 |----|
口②②口 |②---|
口口口口 |----|
38
口口口口 |①---|
②口口② |----|
③口口③ |②---|
口①①口 |③---|
39
口口口口 |①---|
口①①口 |----|
口②②口 |②---|
口口口口 |----|
40
口口口口 |①---|
口①①口 |----|
口②②口 |②---|
口口口口 |----|
41
口口口口 |①---|
②①①② |----|
③口口③ |②---|
口口口口 |③---|
42
口口口口 |①---|
②口口② |----|
③口口③ |②---|
①口口① |③---|
43
口口口口 |①---|
口①①口 |----|
口②②口 |②---|
口口口口 |----|
44
③口口口 |①---|
②口口口 |②---|
①口口口 |③---|
口口口口 |----|
45
口口口口 |①---|
口①①口 |----|
口②②口 |②---|
口口口口 |----|
46
口口口口 |①---|
②口口② |----|
③口口③ |②---|
口①①口 |③---|
47
口口口口 |①---|
口①①口 |----|
口②②口 |②---|
口口口口 |----|
48
口口口口 |①---|
口①①口 |----|
口②②口 |②---|
口口口口 |----|
49
口口口口 |①---|
②①①② |----|
③口口③ |②---|
口口口口 |③---|
50
口口口口 |①---|
②口口② |----|
③口口③ |②---|
①口口① |③---|
51
口口口③ |①---|
口②口④ |②---|
口①口口 |③---|
口口口口 |④---|
52
③口口口 |①---|
④口②口 |②---|
口口①口 |③---|
口口口口 |④---|
53
口口口③ |①---|
口②口④ |②---|
口①口口 |③---|
口口口口 |④---|
54
口口口口 |①---|
口口口口 |----|
②①①② |②---|
③口口③ |③---|
55
口口口③ |①---|
口②口④ |②---|
口①口口 |③---|
口口口口 |④---|
56
③口口口 |①---|
④口②口 |②---|
口口①口 |③---|
口口口口 |④---|
57
口口口③ |①---|
口②口④ |②---|
口①口口 |③---|
口口口口 |④---|
58
口口口口 |①---|
口口口口 |----|
③①①③ |②---|
②口口② |③---|


不確定度: 0

最終更新:2013年10月17日 15:56