切ないほど
ゴールデンボンバー

ADVANCED

Level: 7
BPM: 139
Notes: 437

1
口口口口 |----|
口口口口 |----|
口口口口 |----|
口口口口 |----|
2
口口④口 |①---|
口③口口 |②---|
④②①口 |③---|
口口口③ |④---|
3
①口口① |①--②|
口③③口 |----|
口②②口 |③--④|
④口口④ |----|
4
口⑤口⑤ |①-②-|
④口④口 |③-④-|
②③②③ |⑤---|
口①①口 |----|
5
⑤⑤④④ |①--②|
①口口① |--③-|
⑥⑥③③ |④--⑤|
口②②口 |--⑥-|
6
口口口口 |①--②|
②口口② |----|
口口口口 |----|
口①①口 |----|
7
口口口口 |①---|
口①①口 |----|
口①①口 |----|
口口口口 |----|
8
口口口口 |----|
口口口口 |----|
口口口口 |----|
口口口口 |----|
9
口口口口 |①---|
口①①口 |----|
口①①口 |----|
口口口口 |----|
10
⑦口口⑦ |①-②-|
①口②① |③-④-|
⑥③口⑥ |⑤-⑥-|
⑤口④⑤ |⑦---|
11
口口②② |①---|
③①①口 |---②|
④口口口 |--③-|
⑤口口口 |④-⑤-|
12
②②口口 |①---|
口①①③ |---②|
口口口④ |--③-|
口口口⑤ |④-⑤-|
13
口口②② |①---|
③①①口 |---②|
④口口口 |--③-|
⑤口口口 |④-⑤-|
14
⑤口口口 |①-②-|
⑥口②① |③-④-|
⑦口④③ |⑤-⑥-|
⑧口口口 |⑦-⑧-|
15
口口②② |①---|
③①①口 |---②|
④口口口 |--③-|
⑤口口口 |④-⑤-|
16
②②口口 |①---|
口①①③ |---②|
口口口④ |--③-|
口口口⑤ |④-⑤-|
17
口口②② |①---|
③①①口 |---②|
④口口口 |--③-|
⑤口口口 |④-⑤-|
18
口口口④ |①--②|
⑤①①口 |--③-|
口②②⑥ |④-⑤-|
⑦③③口 |⑥-⑦-|
19
⑧口口④ |--①-|
⑦口口③ |②-③④|
口⑤①口 |--⑤-|
口②⑥口 |⑥-⑦⑧|
20
口口口④ |--①-|
口口口③ |②-③④|
口⑤①口 |--⑤-|
⑦②口⑥ |⑥⑦--|
21
⑧口口④ |--①-|
⑦口口③ |②-③④|
口⑤①口 |--⑤-|
口②⑥口 |⑥-⑦⑧|
22
口口口口 |--①-|
口口口口 |----|
口口口口 |----|
①口口① |----|
23
⑧口口④ |--①-|
⑦口口③ |②-③④|
口⑤①口 |--⑤-|
口②⑥口 |⑥-⑦⑧|
24
口口口④ |--①-|
口口口③ |②-③④|
口⑤①口 |--⑤-|
⑦②口⑥ |⑥⑦--|
25
⑧口口④ |--①-|
⑦口口③ |②-③④|
口⑤①口 |--⑤-|
口②⑥口 |⑥-⑦⑧|
26
口口口口 |--①-|
口②口② |----|
口口口口 |----|
①口口① |--②-|
27
口口口口 |①--②|
口口③口 |--③-|
①口①口
口口②②

口口⑤⑤
口口口口
口④口口 |④--⑤|
口口⑥⑥ |--⑥-|
28
口③③口 |①--②|
口①①口 |--③-|
②④④② |④---|
⑤口⑤口 |--⑤-|
29
口④④口 |①---|
③①③① |--②-|
口⑤⑤口 |③--④|
口②口② |--⑤-|
30
口口口口 |①--②|
口④④口 |--③-|
②⑤⑤① |④---|
②③③① |--⑤-|
31
口①①口 |①-②③|
⑤口②④ |--④-|
⑤⑦⑦④ |⑤--⑥|
⑥③口⑥ |--⑦-|
32
口③③口 |①--②|
口②②口 |--③-|
口口口口
口①①口

口口口口
口口⑤口
④⑥口④ |④---|
口口口口 |--⑤⑥|
33
④⑥⑥⑤ |①-②-|
④口口⑤ |③-④-|
②口①③ |⑤---|
②口口③ |⑥---|
34
口口③口 |①---|
口②口口 |----|
③口口口 |②---|
口①①② |③---|
35
①口口① |①--②|
口③③口 |----|
口②②口 |③--④|
④口口④ |----|
36
口⑤口⑤ |①-②-|
④口④口 |③-④-|
②③②③ |⑤---|
口①①口 |----|
37
⑤⑤④④ |①--②|
①口口① |--③-|
⑥⑥③③ |④--⑤|
口②②口 |--⑥-|
38
口口口口 |①--②|
②口口② |----|
口口口口 |----|
口①①口 |----|
39
④口口④ |①-②-|
口口③口 |③--④|
口②口口 |--⑤-|
⑤口①⑤ |----|
40
④③口④ |①-②-|
口口②口 |③--④|
口①⑥口 |--⑤-|
⑤口口⑤ |--⑥-|
41
④口口④ |①---|
②①①② |----|
③口口③ |②-③-|
口口口口 |④---|
42
口②④口 |①---|
③口口⑤ |----|
④口口② |②-③-|
①⑤③① |④-⑤-|
43
①④④① |①-②③|
口⑤②口 |----|
口③⑥口 |④-⑤⑥|
口口口⑦ |--⑦-|
44
③⑤⑤④ |①-②-|
口口口② |③-④-|
①口口口 |⑤---|
口口口口 |----|
45
①口口① |①-②③|
⑥口②⑤ |--④-|
⑥③口⑤ |⑤--⑥|
口④④口 |----|
46
口③口口 |①-②③|
口口②口 |----|
口口口口 |----|
口①①口 |----|
47
口口④④ |①-②-|
②①口口 |③--④|
②①口口 |--⑤-|
⑤⑤③③ |----|
48
④④口口 |①-②-|
口口①② |③--④|
口口①② |--⑤-|
③③⑤⑤ |----|
49
口口口口 |①---|
③①①② |----|
口口④口 |②-③-|
口口口口 |④---|
50
口口口④ |①---|
④口口口 |②---|
③口口② |③---|
②①①③ |④---|
51
口口②② |①---|
③①①口 |---②|
④口口口 |--③-|
⑤口口口 |④-⑤-|
52
②②口口 |①---|
口①①③ |---②|
口口口④ |--③-|
口口口⑤ |④-⑤-|
53
口口②② |①---|
③①①口 |---②|
④口口口 |--③-|
⑤口口口 |④-⑤-|
54
⑤口口口 |①-②-|
⑥口②① |③-④-|
⑦口④③ |⑤-⑥-|
⑧口口口 |⑦-⑧-|
55
口口②② |①---|
③①①口 |---②|
④口口口 |--③-|
⑤口口口 |④-⑤-|
56
②②口口 |①---|
口①①③ |---②|
口口口④ |--③-|
口口口⑤ |④-⑤-|
57
口口②② |①---|
③①①口 |---②|
④口口口 |--③-|
⑤口口口 |④-⑤-|
58
口口⑥口 |①-②-|
⑦⑤④口 |③-④-|
口③②⑧ |⑤-⑥-|
口①口口 |⑦-⑧-|


不確定度: 0

最終更新:2013年10月17日 15:56