イ号零型
あさき

EXTREME

Level: 9
BPM: 170
Notes: 728

1
口口口口 |----|
口口口口 |----|
口口口口 |----|
口口口口 |----|
2
口口口口 |----|
口口口② |----|
口口口口 |①---|
口②口① |②---|
3
口①口口 |①---|
①口②口 |----|
口②口口 |②---|
口口口口 |----|
4
口口口口 |----|
口②①口 |----|
④③②口 |①-②-|
口④口口 |③-④-|
5
口口口口 |①---|
口口口口 |----|
口口口口 |②---|
①口口② |----|
6
口口口① |----|
②口口口 |①---|
口③口口 |②---|
口口②口 |③---|
7
口口②口 |①---|
口①口② |----|
口口①口 |②---|
口口口口 |----|
8
口口口口 |----|
口①口口 |----|
口②①口 |----|
口口②① |①-②-|
9
口②口口 |①---|
②口口① |----|
口口口口 |②---|
口口④③ |--③④|
10
口口口口 |①---|
⑥②⑤⑨ |----|
口④③口 |②③④⑤|
⑧①口⑦ |⑥⑦⑧⑨|
11
①④①④ |①-②-|
口口口口 |③-④-|
口口口口
口②③口

⑦口⑦口
口口口口
口⑤⑥口 |⑤-⑥-|
⑧口口口 |⑦-⑧-|
12
口②口② |①-②-|
⑤⑦⑤⑦ |③-④-|
③口⑧④ |⑤-⑥-|
口⑥口① |⑦-⑧-|
13
口③②口 |①-②-|
口口口口 |③-④-|
口口口口
①④①④

口口口⑧
口⑥⑤口
口口口口 |⑤-⑥-|
⑦口⑦口 |⑦-⑧-|
14
①口口口 |①-②-|
④⑥⑧③ |③-④-|
⑤⑦⑤⑦ |⑤-⑥-|
口②口② |⑦-⑧-|
15
①④①④ |①-②-|
口口口口 |③-④-|
口口口口
口②③口

⑦口⑦口
口口口口
口⑤⑥口 |⑤-⑥-|
⑧口口口 |⑦-⑧-|
16
口②⑧② |①-②-|
⑤⑦⑤⑦ |③-④-|
③口口④ |⑤-⑥-|
⑥口口① |⑦-⑧-|
17
⑤⑤口口 |①②③④|
口口口口 |⑤-⑥⑦|
⑦①②⑥
口③④口

口口⑩⑩
口⑪⑫口
口⑬口口 |⑧⑨⑩-|
⑨⑬口⑧ |⑪⑫⑬-|
18
口⑥口口 |①-②③|
②口口⑤ |④⑤⑥⑦|
④口①③
口口①⑦

口口⑨口
口⑩⑪口
口⑫⑬口 |⑧⑨⑩⑪|
⑧⑭⑮口 |⑫⑬⑭⑮|
19
①口④③ |①---|
①口口口 |②-③④|
口口口口
②口口口

口⑤口口
⑩⑧⑦⑥
口口口⑨ |⑤-⑥⑦|
口口口口 |⑧-⑨⑩|
20
口口口② |①---|
口口口口 |②-③④|
③④口口
口口①口

口⑨口口
⑨口口口
口口⑤⑧ |⑤-⑥⑦|
⑥⑦⑧口 |⑧-⑨-|
21
①口②③ |①-②-|
⑨①口② |③---|
口⑦⑥⑤ |④-⑤⑥|
④口⑧口 |⑦-⑧⑨|
22
口⑤①⑤ |①---|
⑦⑧④③ |②-③④|
口口口口 |⑤---|
②口口⑥ |⑥-⑦⑧|
23
①口①口 |①---|
口口口口 |②-③④|
口口④③
②口口口

口口⑨口
口口口⑨
⑧⑤口口 |⑤-⑥⑦|
口⑧⑦⑥ |⑧-⑨-|
24
⑨⑩口① |①---|
口⑤①口 |②-③④|
口⑤④③ |⑤-⑥⑦|
②⑧⑦⑥ |⑧-⑨⑩|
25
口口①口 |①-②-|
②口①口 |③-④-|
②④③③
④口口口

⑥⑦⑧口
⑨⑩口口
口口口口 |⑤-⑥⑦|
口口口⑤ |⑧-⑨⑩|
26
口口口口 |①-②③|
口口①③ |④⑤⑥⑦|
④⑥①⑤
②口⑦口

⑩⑭⑬⑨
⑫口口⑮
口口口口 |⑧⑨⑩⑪|
口⑧口⑪ |⑫⑬⑭⑮|
27
口口⑤④ |①-②-|
口③⑥口 |③-④-|
⑤⑥②口 |--⑤-|
①口口⑦ |⑥-⑦-|
28
口口口⑤ |①---|
口口口口 |②---|
口④口口 |③-④-|
①②③口 |⑤---|
29
⑦④口口 |①-②-|
口口⑥⑤ |③-④-|
②⑥③口 |--⑤-|
口⑤口① |⑥-⑦-|
30
口口口口 |①---|
口口口口 |②---|
④口口口 |③---|
③④②① |④---|
31
④①口⑦ |①-②-|
口⑥③口 |③-④-|
口②⑤① |--⑤-|
口口①口 |⑥-⑦-|
32
口口口口 |--①-|
口口口④ |②-③-|
③②口⑥ |--④-|
①⑤⑤口 |⑤-⑥-|
33
①④⑤① |①-②-|
口口③口 |③-④-|
口②口口 |--⑤-|
口口口口 |----|
34
口口口口 |①---|
口口口口 |----|
口口口口
①口口①

⑥口口⑨
口②⑤口
口④③口 |②③④⑤|
⑧口口⑦ |⑥⑦⑧⑨|
35
口①④口 |①-②-|
①④口⑦ |③-④-|
⑥口④③ |--⑤-|
口②⑤口 |⑥-⑦-|
36
口口口口 |--①-|
③口口口 |②-③-|
口⑤②口 |--④-|
口①④口 |⑤---|
37
⑦④口④ |①-②-|
③口①⑥ |③-④-|
⑤口口② |--⑤-|
①口口口 |⑥-⑦-|
38
口口口口 |--①-|
③⑤③口 |②-③-|
口②④口 |--④-|
口口①⑤ |⑤---|
39
口口⑤④ |①-②-|
③⑥口口 |③-④-|
口口⑦② |--⑤-|
①口口口 |⑥-⑦-|
40
口①口口 |--①-|
口口②④ |②-③-|
⑤③口口 |--④-|
口口口⑥ |⑤-⑥-|
41
口④口口 |①-②-|
⑤⑥⑦⑧ |③-④-|
口⑨③口 |--⑤⑥|
①②①口 |⑦⑧⑨-|
42
②口口③ |①-②-|
口口口口 |③---|
②口口③
口口①口

口④④口
口⑤⑥口
口⑦⑧口 |④-⑤⑥|
口⑨⑩口 |⑦⑧⑨⑩|
43
①口⑧① |①---|
⑧口⑥③ |②-③④|
④口⑨② |⑤-⑥⑦|
口⑦口⑤ |⑧---⑨-|
44
口④口口 |①---②-|
口①⑤口 |③-④⑤|
③②口①
口口③口

口口口⑦
⑧⑩口口
口口口⑪ |⑥-⑦⑧|
⑥⑨口⑨ |⑨-⑩⑪|
45
①②①⑧ |①-②③|
⑨⑪⑤③ |④-⑤⑥|
⑥④口⑩ |⑦-⑧⑨|
⑫口⑩⑦ |⑩-⑪⑫|
46
口⑥⑤口 |①-②③|
口口②① |④-⑤⑥|
口③①口
口①口④

⑦口口⑧
⑨口口口
⑪口⑩口 |⑦-⑧⑨|
口口⑫口 |⑩-⑪⑫|
47
③③口口 |①-②-|
口口口② |③-④-|
口口口口
①④口口

口口⑦口
⑥⑤口⑧
口口口口 |⑤-⑥-|
口口口⑤ |⑦-⑧-|
48
口⑤⑥⑤ |①-②-|
⑦⑧⑦口 |③-④-|
口③④③ |⑤-⑥-|
①②①口 |⑦-⑧-|
49
口⑤⑥口 |①②③-|
口口口口 |④-⑤⑥|
③口口④
③①②④

⑦口口⑧
⑦口口⑧
口口口口 |⑦-⑧-|
⑪⑨⑩口 |⑨⑩⑪-|
50
口⑤④口 |①---|
④①①⑤ |----|
③①①口 |②-③-|
口口③② |④-⑤-|
51
②⑥口④ |①-②-|
⑥⑤⑧口 |③-④-|
口⑧③① |⑤-⑥-|
③①口⑦ |⑦-⑧-|
52
②口口口 |①-②-|
口⑤口① |③-④⑤|
口口①③
口①④口

口口⑥⑨
口口口口
⑧口口口 |⑥-⑦-|
⑧⑧口⑦ |⑧-⑨-|
53
口①④口 |①-②-|
①③②口 |③-④-|
口②③口
口口口口

口⑧口口
⑧口口⑥
口口口口 |⑤-⑥-|
口⑥⑦⑤ |⑦-⑧-|
54
①⑧②口 |①-②-|
⑧④口口 |③-④-|
②⑨③⑦ |⑤-⑥⑦|
口⑥口⑤ |⑧-⑨-|
55
⑨⑥口③ |①-②-|
口②口口 |③-④⑤|
⑦口⑤口 |⑥-⑦-|
①④①⑧ |⑧-⑨-|
56
口⑦⑧① |①-②-|
③①②⑦ |③-④-|
口④③⑤ |⑤-⑥-|
口⑤⑥口 |⑦-⑧-|
57
口口口口 |①-②-|
口口①口 |③-④⑤|
①②⑤口
口④口③

⑧口口⑦
口⑥口口
口⑩口口 |⑥-⑦-|
口口⑨口 |⑧-⑨⑩|
58
⑥⑨①口 |①-②-|
②口③⑤ |③-④⑤|
④口口口 |⑥-⑦-|
⑧口口⑦ |⑧-⑨-|
59
③口③口 |①---|
①③①③ |②-③-|
口②口②
口口口口

口口口口
⑤口⑤口
④口④口 |--④-|
口④口④ |--⑤-|
60
口②口② |①-②-|
口口口口 |③---|
口③口③
①口①口

口口口口
口⑦口口
口口⑥口 |④---|
⑤④口④ |⑤-⑥-⑦-|
61
口②①口 |①--②|
口⑤②① |--③-|
③④⑥② |④--⑤|
④③口⑤ |--⑥-|
62
③①口④ |①-②-|
①口口口 |③-④-|
口口口口
口口②口

口口口口
口⑥口口
口⑩⑦⑤ |⑤-⑥⑦|
⑧⑤⑨口 |⑧-⑨⑩|
63
②④⑦⑤ |①-②-|
口⑧①⑦ |③-④-|
口口⑧口 |⑤-⑥-|
⑥口口③ |⑦-⑧-|
64
③⑦口口 |①-②-|
⑤口⑧口 |③-④-|
①⑤口④ |⑤-⑥-|
⑤①⑥② |⑦-⑧-|
65
③口①① |①-②-|
⑤⑧⑧① |③-④-|
口⑥口口 |⑤-⑥⑦|
⑨②⑦④ |⑧-⑨-|
66
③口口② |①-②-|
口口口口 |③-④-|
①口口口
口①口④

口⑥口口
⑧口⑪口
口⑤口⑨ |⑤-⑥⑦|
口⑩⑦口 |⑧⑨⑩⑪|
67
口口⑤④ |①-②-|
口③⑥口 |③-④-|
⑤⑥②口 |--⑤-|
①口口⑦ |⑥-⑦-|
68
口口口⑤ |①---|
口口口口 |②---|
口④口口 |③-④-|
①②③口 |⑤---|
69
⑦④口口 |①-②-|
口口⑥⑤ |③-④-|
②⑥③口 |--⑤-|
口⑤口① |⑥-⑦-|
70
口口口口 |①---|
口口口口 |②---|
④口口口 |③---|
③④②① |④---|
71
④①口⑦ |①-②-|
口⑥③口 |③-④-|
口②⑤① |--⑤-|
口口①口 |⑥-⑦-|
72
口口口口 |--①-|
口口口④ |②-③-|
③②口⑥ |--④-|
①⑤⑤口 |⑤-⑥-|
73
①④口① |①-②-|
口口③⑦ |③-④-|
⑥②口口 |--⑤-|
口口⑤口 |⑥-⑦-|
74
⑧口①⑪ |--①-|
②④⑦口 |②-③-|
口⑥⑤口 |④⑤⑥⑦|
⑩口③⑨ |⑧⑨⑩⑪|
75
口⑧④口 |①-②-|
③口口⑦ |③-④-|
⑥口口② |⑤-⑥-|
口①⑤口 |⑦-⑧-|
76
口⑧④口 |①-②-|
③口口⑦ |③-④-|
⑥口口② |⑤-⑥-|
口①⑤口 |⑦-⑧-|


不確定度: 0

最終更新:2013年12月29日 02:26