TSAR BOMBA
L.E.D.

EXTREME

Level: 10
BPM: 190
Notes: 927

1
口口口口 |----|
口口口口 |----|
口口口口 |----|
口口口口 |----|
2
⑦⑥③口 |①-②-|
口②⑤口 |③-④-|
口口口口 |⑤-⑥-|
口④①口 |--⑦-|
3
口口口口 |--①-|
①③口口 |--②-|
②口④口 |--③-|
口⑤口口 |④-⑤-|
4
⑥⑦口③ |①-②-|
②口口⑤ |③-④-|
口口口口 |⑤-⑥-|
④口口① |--⑦-|
5
③口口口 |--①-|
口①口④ |--②-|
⑤②口口 |--③-|
口口口口 |④-⑤-|
6
⑦⑥③口 |①-②-|
口②⑤口 |③-④-|
口口口口 |⑤-⑥-|
口④①① |--⑦-|
7
口口口口 |--①-|
①③口口 |--②-|
②口④口 |--③-|
口⑤口口 |④-⑤-|
8
⑥⑦口③ |①-②-|
②口口⑤ |③-④-|
口口口口 |⑤-⑥-|
④口口① |--⑦-|
9
③口口口 |--①-|
口①口④ |--②-|
⑤②口口 |--③-|
口口口口 |④-⑤-|
10
⑧⑥③口 |①-②-|
口②⑤口 |③-④-|
口⑧口⑦ |⑤-⑥-|
④口①① |⑦-⑧-|
11
口④口口 |--①-|
①②⑤③ |--②-|
②⑥口口 |③-④-|
口①口口 |⑤-⑥-|
12
⑥⑧⑧③ |①-②-|
②口口⑤ |③-④-|
⑧口口⑦ |⑤-⑥-|
④口①① |⑦-⑧-|
13
口口口口 |--①-|
口①①② |--②-|
⑤②④口 |--③-|
口③①② |④-⑤-|
14
①②③④ |①②③④|
口口口⑤ |⑤⑥⑦⑧|
口口口⑥
口口⑧⑦

⑬口口口
口⑫口口
口口⑪口 |⑨⑩⑪-|
⑩⑨口口 |⑫-⑬-|
15
口②①口 |①-②-|
③口口④ |③-④-|
口⑦口⑤ |⑤-⑥-|
⑧口⑥口 |⑦-⑧-|
16
口①口④ |①-②-|
③⑥②⑤ |③-④-|
①口④口 |⑤-⑥-|
⑧③⑦② |⑦-⑧-|
17
口①口口 |①-②-|
口口②口 |③-④-|
③口口口
口口口④

口⑧⑤口
口口口口
口口口口 |⑤-⑥-|
口⑦⑥口 |⑦-⑧-|
18
①⑦⑥① |①--②|
②①①② |--③-|
②③③② |④-⑤-|
③⑤④③ |⑥-⑦-|
19
①口口⑦ |①-②-|
口③⑤口 |③-④-|
②④⑥⑧ |⑤-⑥-|
口口口口 |⑦-⑧-|
20
⑧⑦口⑨ |①-②-③-|
口⑥⑪口 |④⑤⑥⑦|
口⑤⑩口 |⑧-⑨-|
②④③① |⑩-⑪-|
21
口口①⑤ |①-②-|
②⑦口口 |③-④-|
口口⑥③ |⑤-⑥-|
⑧④口口 |⑦-⑧-|
22
③⑧口口 |①-②-|
⑦口⑥③ |③-④-|
口口⑤② |⑤-⑥-|
口口④① |⑦-⑧-|
23
口⑥④⑤ |--①-|
口①口口 |②-③-|
②③口口 |--④-|
⑤口口口 |⑤-⑥-|
24
③⑧口口 |①-②-|
⑦口⑥③ |③-④-|
口口⑤② |⑤-⑥-|
口口④① |⑦-⑧-|
25
口⑥④⑤ |--①-|
口①口口 |②-③-|
②③口口 |--④-|
⑤口口口 |⑤-⑥-|
26
口口口⑧ |①-②-|
③口②① |③-④-|
⑥口⑤④ |⑤-⑥-|
⑦⑤③① |⑦-⑧-|
27
口④②口 |①-②-|
口口口口 |③-④-|
口口口口
口口③①

口口口口
口⑦口口
口口⑥口 |⑤-⑥-|
⑦⑤口⑧ |⑦-⑧-|
28
②口①① |①-②-|
④口③③ |③-④-|
⑥②⑥⑤ |⑤-⑥-|
⑧⑤④⑦ |⑦-⑧-|
29
⑥②①⑤ |①②③④|
⑧④③⑦ |⑤⑥⑦⑧|
⑫⑪⑩⑨ |⑨⑩⑪⑫|
口⑬⑬口 |⑬---|
30
⑤③②④ |①---|
③⑤④② |②-③-|
口口口口 |--④-|
①口口① |⑤---|
31
⑥④③④ |①-②-|
⑤⑥⑤③ |③---|
②③口① |④-⑤-|
口②①⑥ |--⑥-|
32
口③②口 |①---|
口口口口 |②-③-|
③口口②
口①①口

⑤口口④
口口口⑥
口⑤④口 |--④-|
口口⑥口 |⑤-⑥-|
33
口口③口 |①---|
口①⑤口 |②-③-|
③⑥④③ |--④-|
①②口① |⑤-⑥-|
34
⑤③②④ |①---|
③⑤④② |②-③-|
口口口口 |--④-|
①口口① |⑤---|
35
口口③口 |①---|
口口口④ |②-③-|
⑤③②口 |--④-|
①②口① |⑤---|
36
①②⑦⑤ |①-②-|
②①口口 |③-④-|
口口③④ |⑤---|
⑤⑥④③ |--⑥⑦|
37
①②口⑤ |①-②-|
②①⑥口 |③-④-|
口⑥③④ |⑤---|
⑤口④③ |⑥---|
38
①口⑤④ |①-②-|
②③口⑦ |③-④-|
①口⑥④ |⑤-⑥-|
口口⑧⑦ |⑦-⑧-|
39
③④口口 |①-②-|
口②①口 |③-④-|
③口口口
口口口口

口口⑦⑥
⑤口⑧⑧
口口⑦⑥ |⑤-⑥-|
⑤口口口 |⑦-⑧-|
40
口口口⑥ |①-②-|
④①口⑦ |③-④-|
③②口⑧ |⑤-⑥-|
④①⑤口 |⑦-⑧-|
41
口②①口 |①-②-|
④③口口 |③-④-|
口口①口
④口口口

口口口口
口口⑦⑥
⑤口⑧⑧ |⑤-⑥-|
口口⑦⑥ |⑦-⑧-|
42
①②③口 |①-②-|
口④口口 |③-④-|
口①口口
④口口口

口口口口
口口口⑦
⑤⑧口口 |⑤-⑥-|
口口⑦⑥ |⑦-⑧-|
43
口口③① |①-②-|
④口②口 |③-④-|
口口①口
口④口口

口⑤口口
口⑥口⑦
口口⑧⑧ |⑤-⑥-|
⑥口⑦口 |⑦-⑧-|
44
①⑤③④ |①-②-|
⑤⑥②口 |③-④-|
④②⑦口 |⑤---|
口③口① |--⑥⑦|
45
①⑤⑥④ |①-②-|
⑤口②⑥ |③-④-|
④③口口 |⑤---|
口②①③ |⑥---|
46
口口口口 |①---|
口口口口 |----|
口口口口 |②---|
①②口口 |----|
47
口口口口 |①---|
口口口口 |----|
口口口口 |②---|
口口①② |----|
48
①⑦口④ |①-②-|
⑧口③② |③-④-|
①⑦⑥④ |⑤-⑥-|
口⑤口口 |⑦-⑧-|
49
⑧⑦⑤⑥ |①-②-|
口口②① |③-④-|
④⑦⑤③ |⑤-⑥-|
口口②口 |⑦-⑧-|
50
口口口口 |①---|
口口口口 |②---|
口口口口 |③---|
①②③④ |④---|
51
④③②① |①---|
口口口口 |②---|
口口口口 |③---|
口口口口 |④---|
52
⑥口口③ |①-②-|
⑧⑦④② |③-④-|
⑥口口③ |⑤-⑥-|
①口⑤① |⑦-⑧-|
53
⑧⑤①⑧ |①-②-|
口口⑥② |③-④-|
口⑦③口 |--⑤⑥|
口口④④ |⑦-⑧-|
54
口口口口 |①-②-|
口⑧⑦⑥ |③-④-|
口口④⑤ |⑤-⑥-|
①②③口 |⑦-⑧-|
55
②③④⑤ |①-②-|
①口口⑥ |③-④-|
口口⑧⑦ |⑤-⑥-|
口口口口 |⑦-⑧-|
56
口④⑦口 |①-②-|
口⑤⑥口 |③-④-|
④③口⑦ |⑤-⑥-|
①⑧②口 |⑦-⑧-|
57
④④口⑤ |①-②-|
⑥⑦⑧② |③-④-|
⑥⑦⑧口 |⑤-⑥-|
①口③③ |⑦-⑧-|
58
⑩⑨⑧⑦ |①②③④|
⑪⑯⑮⑥ |⑤⑥⑦⑧|
⑫⑬⑭⑤ |⑨⑩⑪⑫|
①②③④ |⑬⑭⑮⑯|
59
⑩⑨⑧⑦ |①②③④|
⑪⑯⑮⑥ |⑤⑥⑦⑧|
⑫⑬⑭⑤ |⑨⑩⑪⑫|
①②③④ |⑬⑭⑮⑯|
60
⑥⑤⑥③ |①-②-|
口口口④ |③-④-|
⑦⑧⑦③ |⑤-⑥-|
①②①④ |⑦-⑧-|
61
⑧⑦口② |①-②-|
⑤口①③ |③-④-|
⑥口⑥② |⑤-⑥-|
⑤④口④ |⑦-⑧-|
62
⑤④口口 |①-②-|
口②口口 |--③-|
口口口口 |--④-|
口③①口 |--⑤-|
63
口口口口 |--①-|
①③口口 |--②-|
②口口口 |--③-|
口④口口 |--④-|
64
③④口口 |--①-|
①口口口 |--②-|
口口口口 |--③-|
②口口口 |--④-|
65
③口口口 |--①-|
口①口口 |--②-|
④②口口 |--③-|
口口口口 |--④-|
66
⑧⑥③口 |①-②-|
口②⑤口 |③-④-|
口口⑦口 |⑤-⑥-|
口④①口 |⑦-⑧-|
67
口口口① |①-②-|
②⑥口③ |③-④-|
④口⑦⑤ |⑤-⑥-|
口⑧口口 |⑦-⑧-|
68
⑥⑧口③ |①-②-|
②口口⑤ |③-④-|
口口口⑦ |⑤-⑥-|
④口口① |⑦-⑧-|
69
⑥口①口 |①-②-|
口②③⑦ |③-④-|
⑧④⑤口 |⑤-⑥-|
口口口口 |⑦-⑧-|
70
口②④口 |①---|
口口⑥口 |②-③-|
口③口口 |④---|
口口⑤① |⑤-⑥-|
71
口口口口 |--①-|
④口口口 |--②-|
口⑤③② |③-④-|
口①口口 |⑤---|
72
①口②口 |①---②-|
口③口口 |③-④---|
口口④口
口口口口

⑦口口口
⑥口口口
口口口口 |⑤---|
⑤口口口 |⑥-⑦-|
73
口①⑥⑥ |①-②-|
口②⑤① |③-④-|
⑤③口② |--⑤-|
④④口③ |⑥---|
74
④口⑤口 |----|
③④⑤① |--①-|
口口②口 |②-③-|
③口①② |④-⑤-|
75
口③口① |①-②-|
口口口④ |③-④-|
③②④①
口②口口

⑥口口口
⑥⑦⑧口
口口口⑧ |⑤-⑥-|
⑦口⑤⑤ |⑦-⑧-|
76
口③①① |①-②-|
口口口口 |③-④-|
②③④口
口②口④

⑥口⑧⑧
⑦⑥口⑤
口口口口 |⑤-⑥-|
⑦口⑤口 |⑦-⑧-|
77
⑤③口口 |①-②-|
口口①④ |③-④-|
②④③② |--⑤-|
⑥①⑥⑤ |⑥---|
78
③④⑤⑥ |①---|
②①①② |②---|
⑥③④⑤ |③-④-|
口口口口 |⑤-⑥-|
79
⑥⑥⑦⑦ |①-②-|
④④②② |③-④-|
⑧⑤⑤⑧ |⑤-⑥-|
③①①③ |⑦-⑧-|
80
⑤口口⑤ |①-②③|
④口③② |④---|
⑥口口⑥ |--⑤-|
④①①口 |⑥---|
81
⑩②①⑨ |①②③④|
⑩④③⑨ |⑤⑥⑦-|
⑪⑥⑤⑪ |⑧-⑨-|
⑧⑧⑦⑦ |⑩-⑪-|
82
⑥①①③ |①---|
⑥②②③ |②---|
口⑤④口 |③-④-|
⑤口口④ |⑤-⑥-|
83
⑦③①⑤ |①-②-|
⑦④②⑤ |③-④-|
③⑧⑥① |⑤-⑥-|
⑧④②⑥ |⑦-⑧-|
84
⑥口①⑤ |①-②-|
⑧④②⑦ |③---|
③⑩⑨口 |④-⑤⑥|
口③口口 |⑦⑧⑨⑩|
85
口口口口 |①-②-|
口⑧⑦口 |③-④-|
⑤口口② |⑤-⑥-|
④⑥③① |⑦-⑧-|
86
①口口① |①---|
口口口口 |②---|
口口口口
②口口②

⑥口③口
口口⑤⑤
④⑥③口 |③-④-|
口④口口 |⑤-⑥-|
87
⑧②⑤① |①-②-|
④②⑦⑦ |③-④-|
⑥⑧⑤① |⑤-⑥-|
④⑥③③ |⑦-⑧-|
88
口①口口 |①-②-|
③②口口 |③---|
口口口① |--④-|
③④②④ |----|
89
②④③① |①②③④|
口⑥⑤⑦ |⑤⑥⑦-|
口口口⑦
口口口口

口口口⑪
⑩口口口
⑩口⑪口 |⑧-⑨-|
⑧⑧⑨⑨ |⑩-⑪-|
90
①⑥①口 |①---|
④③⑥口 |②---|
口②口② |③-④-|
④③⑤⑤ |⑤-⑥-|
91
②⑧②① |①-②-|
⑧④⑦③ |③-④-|
⑤⑤①③ |⑤-⑥-|
⑥④⑦⑥ |⑦-⑧-|
92
口⑦①① |①-②-|
口③⑥口 |③---|
口⑤②② |④-⑤-|
④③口口 |⑥-⑦-|
93
③⑦①⑤ |①-②-|
⑧③⑥① |③-④-|
④⑦②⑤ |⑤-⑥-|
⑧④⑥② |⑦-⑧-|
94
口口①口 |①---|
口口口① |----|
口口口口 |----|
口口口口 |----|


不確定度: 0

最終更新:2013年12月29日 02:09