ポップミュージック論
ギラギラメガネ団

EXTREME

Level: 8
BPM: 190
Notes: 620

1
口口口口 |----|
口口口口 |----|
口口口口 |----|
口口口口 |----|
2
①②③④ |①---|
口口口口 |②---|
口口口口 |③---|
口口口口 |④---|
3
口口口口 |①-②-|
⑤口口⑥ |③-④-|
①①②口 |⑤---|
口③④口 |⑥---|
4
口①①口 |①---|
口②②口 |②---|
口③③口 |③---|
口口口口 |----|
5
①①口② |①-②-|
③口口④ |③-④-|
⑤口口⑥ |⑤-⑥-|
⑦口口口 |⑦---|
6
口①口口 |①-②-|
口口②口 |③-④-|
⑤③口⑥ |⑤---|
口口④口 |⑥---|
7
①④④① |①-②-|
②⑤⑤② |--③-|
口口口口 |④-⑤-|
③⑥③⑥ |--⑥-|
8
①④④① |①-②-|
②⑤⑤② |--③-|
③口③口 |④-⑤-|
口⑥口⑥ |--⑥-|
9
①口口① |①--②|
口⑦⑧② |③-④-|
⑤③⑥⑤ |⑤--⑥|
口口④口 |⑦-⑧-|
10
①⑤⑤① |①--②|
③口⑧⑥ |③-④-|
⑦口口④ |⑤--⑥|
口口口② |⑦-⑧-|
11
口口口口 |①-②-|
⑤口口⑥ |③-④-|
口①②口 |⑤---|
口③④口 |⑥---|
12
口①①口 |①---|
口②②口 |②---|
口③③口 |③---|
口口口口 |----|
13
①口口② |①-②-|
③口口④ |③-④-|
⑤口口⑥ |⑤-⑥-|
⑦口口口 |⑦---|
14
口①②⑥ |①-②-|
口③④口 |③-④-|
⑤口口口 |⑤---|
口口口口 |⑥---|
15
口口口口 |①-②-|
⑤口口⑥ |③-④-|
口①②口 |⑤---|
口③④口 |⑥---|
16
口①①口 |①---|
口②②口 |②---|
口③③口 |③---|
口口口口 |----|
17
①口口② |①-②-|
③口口④ |③-④-|
⑤口口⑥ |⑤-⑥-|
⑦口口口 |⑦---|
18
口①②口 |①-②-|
口③④口 |③-④-|
⑤口口⑥ |⑤---|
口口口口 |⑥---|
19
口⑦④口 |①-②-|
口③⑥口 |③-④-|
⑤口②口 |--⑤-|
口①口口 |⑥-⑦-|
20
②③③口 |①---|
口口口口 |--②-|
口口口口 |----|
口口口① |③---|
21
口口口口 |①---|
口①①口 |②-③-|
口③②口 |----|
口口口④ |④---|
22
口口口④ |①-②-|
③口口口 |③-④-|
口⑥口② |----|
①口⑤口 |⑤-⑥-|
23
口口口② |①---|
口⑤①口 |--②-|
口口④口 |--③-|
口③口口 |④-⑤-|
24
口①口口 |----|
口口口④ |--①-|
③口口口 |--②-|
口口口② |③-④-|
25
①口口③ |①---|
口②口口 |②-③-|
口④④口 |----|
口口口口 |④---|
26
⑥①①⑤ |①-②③|
⑧②口⑦ |④---|
④⑩⑨③ |⑤⑥⑦⑧|
⑫口口⑪ |⑨⑩⑪⑫|
27
口②③③ |①---|
④④口口 |②---|
口口⑤⑤ |--③-|
口①①口 |④-⑤-|
28
口②口口 |----|
口口③① |①---|
口④口口 |--②-|
口口口口 |③-④-|
29
②口③口 |①---|
口④口口 |②-③-|
口口②口 |----|
口口口① |④---|
30
⑤口口② |①-②-|
口口口① |③-④-|
口⑧口⑥ |⑤-⑥-|
③口⑦④ |⑦-⑧-|
31
⑥①①② |①-②-|
口①①口 |③-④-|
口口③口 |⑤---|
④口口⑤ |⑥---|
32
口②②口 |①---|
①口口① |②---|
①口口① |③---|
口③③口 |----|
33
⑦③⑥② |①-②-|
④①①⑤ |③-④-|
口①①口 |⑤-⑥-|
口口口口 |⑦---|
34
口②口口 |①-②-|
口④③⑤ |③-④-|
①口口① |⑤---|
①⑥口① |⑥---|
35
口口④④ |①---|
③③口口 |②---|
口②②口 |③---|
口口①口 |④---|
36
口口口口 |①---|
口口口① |②-③-|
②口口口 |----|
口口③口 |----|
37
④④口口 |①---|
口口③③ |②---|
口②②口 |③---|
口①口口 |④---|
38
口口口口 |①---|
①口口口 |②-③-|
口口②口 |----|
③口口口 |----|
39
口口口④ |①---|
口口④③ |②---|
口④③② |③---|
④③②① |④---|
40
④②①口 |①---|
②①口口 |②-③-|
①口③口 |----|
口口口口 |④---|
41
口口④③ |①-②-|
⑥口口⑧ |③-④-|
⑤口口⑦ |⑤-⑥-|
口②①口 |⑦-⑧-|
42
口口口口 |①-②-|
⑦①②口 |③-④-|
口③④⑥ |--⑤-|
⑤口口口 |⑥-⑦-|
43
口口②① |①-②-|
口口口口 |③-④-|
③④⑥口 |⑤-⑥-|
⑦⑧⑤口 |⑦-⑧-|
44
口①②口 |①-②-|
口③④口 |③-④-|
口⑤⑥口 |⑤-⑥-|
口⑦⑧口 |⑦-⑧-|
45
①口口口 |①---|
①口口口 |②---|
②⑤④③ |③---|
口口口口 |④-⑤-|
46
口口口① |①---|
口②③① |②---|
⑤⑤口口 |③---|
口口④④ |④-⑤-|
47
④①①④ |①-②-|
口⑤⑤口 |--③-|
口口③② |④---|
②③口口 |⑤---|
48
⑤④④⑤ |①-②-|
①口口① |--③-|
口③口口 |④---|
②口③② |⑤---|
49
口口口口 |①---|
③②①③ |②---|
口④④口 |③-④-|
⑤①②⑤ |⑤---|
50
②④④② |①-②-|
口⑧⑦口 |③-④-|
①⑤⑤① |⑤-⑥-|
⑥③③口 |⑦-⑧-|
51
①③②① |①---|
④口口④ |②---|
③口口② |③---|
口口口口 |④---|
52
口口口口 |①---|
口口④口 |②---|
口⑤口② |③-④-|
③①①⑥ |⑤-⑥-|
53
①②②① |①---|
口口④口 |②---|
口④口口 |③---|
口③③口 |④---|
54
口口口③ |①---|
口①口口 |②---|
口口①口 |③---|
②口口④ |④---|
55
口①②口 |①---|
①口③口 |②---|
②③⑤口 |③---|
④口口口 |④-⑤-|
56
口口口口 |①---|
口口③② |②---|
口③口① |③---|
口②①④ |④---|
57
②口③① |①---|
口口④③ |②---|
③④口口 |③---|
①③口口 |④---|
58
②口口③ |①---|
口①口口 |②---|
口④①④ |③---|
③口口② |④---|
59
口①①口 |①---|
②口口③ |②---|
口④④口 |③---|
口②③口 |④---|
60
①口口① |①---|
口口④口 |②---|
口⑤口② |③---|
③口口口 |④-⑤-|
61
①④④① |①---|
口③口③ |②---|
②口②口 |③---|
口口口口 |④---|
62
口⑤口② |①---|
口③口口 |②---|
④口口④ |③-④-|
口①①口 |--⑤-|
63
口口①口 |①---|
口④口② |②---|
口⑥口③ |③-④-|
⑤口口⑤ |⑤-⑥-|
64
①口口① |①---|
⑥口口② |②---|
口口口③ |③-④-|
④⑤口⑤ |⑤-⑥-|
65
②④口① |①---|
口①口② |②---|
③口口③ |③---|
口口口④ |④---|
66
口口口① |①---|
②③口② |②-③-|
⑥⑦口④ |④-⑤-|
①⑤口⑥ |⑥-⑦-|
67
①口口① |①---|
口口口② |②---|
⑥⑤口③ |③-④-|
④口口⑤ |⑤-⑥-|
68
口①口① |①---|
口口口② |②---|
⑥口口③ |③-④-|
⑤④口⑤ |⑤-⑥-|
69
①口口⑤ |①-②③|
⑨⑥②口 |④-⑤-|
口③⑦口 |⑥⑦⑧-|
口⑧④口 |⑨---|
70
口①⑤口 |①-②③|
⑥口口② |④---|
③口口⑦ |⑤-⑥⑦|
⑧口口④ |⑧---|
71
口口口口 |①-②-|
⑤口口⑥ |③-④-|
口①②口 |⑤---|
口③④口 |⑥---|
72
口①①口 |①---|
口②②口 |②---|
口③③口 |③---|
口口口口 |----|
73
①口口② |①-②-|
③口口④ |③-④-|
⑤口口⑥ |⑤-⑥-|
⑦口口口 |⑦---|
74
①口⑦口 |①-②-|
⑤②③⑧ |③-④-|
⑥①④⑦ |⑤-⑥-|
口⑤口③ |⑦-⑧-|
75
①⑤口① |①-②-|
口口④口 |③-④-|
⑥③口口 |⑤---|
口⑥②口 |⑥---|
76
④口①④ |①---|
口②②① |②---|
口③③口 |③---|
口口口口 |④---|
77
口口②口 |①-②-|
口③口口 |③-④-|
口⑥口④ |⑤---|
①⑤口① |⑥---|
78
①⑤口⑤ |①-②-|
⑥口⑥② |③-④-|
③口口口 |⑤---|
口口口④ |⑥---|
79
④口④口 |①-②-|
口⑤口⑤ |--③-|
口①①口 |④---|
③②②③ |⑤---|
80
口④口④ |①-②-|
⑤口⑤口 |--③-|
口①①口 |④---|
③②②③ |⑤---|
81
口③③口 |①---|
口口口口 |②---|
①④④① |③-④-|
⑤②②⑤ |⑤---|
82
③口口③ |①-②-|
⑤①①⑤ |③-④-|
④⑤⑤④ |⑤---|
口②②口 |----|


不確定度: 0

最終更新:2014年01月08日 16:52