ちくわパフェだよ☆CKP
日向美ビタースイーツ♪

EXTREME

Level: 9
BPM: 205
Notes: 741

1
口口口口 |----|
口口口口 |----|
口口口口 |----|
口口口口 |----|
2
③口③① |①---|
口口口口 |②---|
口口②② |③---|
口口口口
3
口口口口 |①---|
③口③① |②---|
口口口口 |③---|
口口②②
4
口口口① |①-②-|
口③口③ |③---|
口口口口 |④---|
②②口④
5
口④①口 |①-②-|
口口⑤口 |③---|
②口口口 |④-⑤-|
口口③口
6
口口口口 |①---|
①③口③ |②---|
口口口口 |③---|
②②口口
7
①③口③ |①---|
口口口口 |②---|
②②口口 |③---|
口口口口
8
口口①口 |①-②-|
⑤②口④ |③---|
口口③口 |④-⑤-|
口口口口
9
口①口口 |①-②-|
口口②口 |③-④-|
口③口⑤ |⑤---|
口口④口
10
①口口口 |①---|
口③口③ |②---|
②口口口 |③---|
口②口口
11
③口③① |①---|
口口口口 |②---|
口口口② |③---|
口口②口
12
口②口口 |①---|
②口口① |②---|
口②①口 |③---|
③口口①
13
③口口① |①---|
口②①口 |②---|
②口口① |③---|
口②口口
14
口口①口 |①---|
③口③口 |②---|
口口口② |③---|
口口②口
15
口①口口 |①---|
口③口③ |②---|
②口口口 |③---|
口②口口
16
口口口① |①---|
③口③口 |②---|
口口口口 |③---|
口口②②
17
③口口③ |①-②-|
口口口口 |③---|
口②①口 |----|
口口口口
18
口①口口 |①-②-|
⑤口②⑤ |③-④-|
③口口口 |--⑤-|
口⑥⑥④ |--⑥-|
19
①③口① |--①-|
口口④口 |--②-|
口②②⑤ |--③-|
口口口口 |④-⑤-|
20
口⑤⑤口 |①-②-|
③④口口 |③-④-|
口⑥⑥口 |--⑤-|
口②①口 |--⑥-|
21
①口口① |--①-|
口口⑤口 |--②-|
④口口口 |--③-|
②口③② |④-⑤-|
22
口口③口 |①-②-|
①⑦口④ |③-④-|
口②⑥口 |--⑤-|
口⑤口口 |⑥-⑦-|
23
口口口① |--①-|
口口②⑨ |②-③-|
⑧③口口 |④⑤⑥⑦|
④⑤⑥⑦ |⑧-⑨-|
24
①②③口 |①---|
②③口口 |----|
③口口口 |②---|
口口口口 |--③-|
25
⑥口口⑦ |--①②|
⑧口①⑨ |③-④-|
口②口口 |⑤---|
④口③⑤ |⑥⑦⑧⑨|
26
⑧①口⑦ |①-②-|
口②口口 |③-④-|
口⑥③口 |⑤-⑥-|
口④⑤口 |⑦-⑧-|
27
⑧口⑤口 |①-②-|
②口口③ |③-④-|
⑥口口口 |⑤-⑥-|
④口⑦① |⑦-⑧-|
28
口②口① |①-②-|
⑤③②口 |③-④-|
⑥④③② |⑤-⑥-|
口⑦⑧口 |⑦-⑧-|
29
②②①① |①-②-|
口口口④ |--③-|
口③③口 |----|
④口口口 |④---|
30
口口口口 |①---|
①②②口 |----|
口口口口 |②---|
口③③① |--③-|
31
⑤①②口 |--①-|
口口口口 |②-③-|
口③④口 |④---|
口口⑥⑥ |⑤-⑥-|
32
口口口口 |①---|
口①口① |----|
③②口口 |②---|
②③口口 |--③-|
33
口③③③ |----|
②口①③ |①-②-|
口④③⑤ |③---|
口⑥③⑦ |④⑤⑥⑦|
34
⑧口口⑤ |①-②-|
⑥④③口 |③-④-|
①口⑦口 |⑤-⑥-|
②口口口 |⑦-⑧-|
35
口⑥⑤口 |①-②-|
⑧口⑦口 |③-④-|
④②口③ |⑤-⑥-|
口口①口 |⑦-⑧-|
36
⑦口口① |①-②-|
口③口③ |③-④-|
口⑤口⑥ |⑤-⑥-|
②②④口 |⑦---|
37
④①④① |①-②-|
口③③口 |--③-|
②口②口 |----|
口口口口 |④---|
38
口口口口 |①---|
③口口② |----|
③口口② |②---|
口①口① |--③-|
39
口口口口 |----|
口②②口 |----|
口①①口 |①---|
口口口口 |②---|
40
口①①口 |①---|
②口口口 |----|
口口口③ |--②-|
④口口口 |③-④-|
41
口口口口 |----|
口口口口 |----|
口口口口
口口口口
42
①口①口 |①---|
口口口② |②---|
口④③口 |③-④-⑤-|
口⑥⑤口 |⑥---|
43
⑤①⑤① |①---|
口口口口 |②-③-④-|
③⑦⑥② |⑤---|
口口⑧④ |⑥-⑦-⑧-|
44
⑥①⑥① |①---|
⑤口⑤口 |②-③-④-|
③口口② |⑤---|
口口口④ |⑥---|
45
⑧④⑧④ |①-②-③-|
口口口口 |④---|
⑥②①⑤ |⑤-⑥-⑦-|
口口③⑦ |⑧---|
46
口⑥口⑥ |①---|
①口①口 |②-③-④-|
口③②口 |⑤---|
口⑤④口 |⑥---|
47
④⑧④⑧ |①-②-③-|
口口口口 |④---|
②⑥⑤① |⑤-⑥-⑦-|
口口⑦③ |⑧---|
48
⑤口⑤口 |①-②-③-|
④口④口 |④---|
②⑦⑥① |⑤---|
口口⑧③ |⑥-⑦-⑧-|
49
口①口① |①---|
口口口口 |②-③-④-|
③口口② |----|
口口口④ |----|
50
口口口① |----|
③口⑤口 |①-②-|
口⑥口④ |③-④-|
口②⑦口 |⑤⑥⑦-|
51
②口口③ |①-②-|
⑤口口口 |③-④-|
口口口⑥ |⑤-⑥-|
①口口④
52
口③①口 |①-②-|
口③口① |③-④-|
②②口口
④④口口
53
③口口② |①-②-|
④口⑥口 |③-④-|
口口口口 |⑤-⑥-|
口口①⑤
54
口③①口 |①-②-|
口③口① |③-④-|
②②口口
④④口口
55
①口⑥② |①-②-|
口口④口 |③-④-|
口口口⑤ |⑤-⑥-|
口口口③
56
③①口口 |①-②-|
①③口口 |③-④-|
口②④口
口④②口
57
口口口① |①-②-|
⑥口④口 |③-④-|
②口口⑤ |⑤-⑥-|
口口口③
58
口③①口 |①-②-|
口③口① |③-④-|
④②口口
②④口口
59
①口口③ |①-②-|
④口④口 |③-④-|
口口口口 |----|
口口②②
60
口③①口 |①-②-|
口⑤口⑤ |③-④-|
口口④④ |⑤---|
②②口口 |--|
61
③口口① |①-②-|
⑥口⑥口 |③-④-|
②②口⑤ |⑤-⑥-|
口口④④ |----|
62
口③口① |①-②-|
口口口口 |③-④-|
口口口口
②②④④
63
③口③口 |①-②-|
口口口① |③---|
②②口口 |--|
口口口口
64
口③口① |①-②-|
②②口口 |③-④-|
口口口口
口口④④
65
④口④口 |①-②-|
口口口① |③-④-|
口口口③ |----|
②②口口
66
口口口口 |①---|
①②②口 |----|
口①①② |②---|
口口口口 |----|
67
③①口③ |①---|
①③口② |----|
①口口② |②---|
口口②口 |--③-|
68
口口②口 |----|
口口口口 |①---|
②口①口 |--②-|
①②口① |----|
69
③①口③ |①---|
④口②④ |②---|
口③口① |③---|
②口①② |④---|
70
口口口⑥ |①-②-③-|
口③口口 |④-⑤-⑥-|
⑤口②口 |----|
口①口④ |----|
71
口口口口 |----|
口口口口 |----|
口口口口 |----|
口口口口 |----|
72
口口口口 |----|
口口口口 |----|
口口口口
口口口口
73
②口口口 |①-②-|
④④口③ |③-④-|
口⑦⑥⑤ |--⑤-|
口口①① |⑥-⑦-|
74
②⑤⑥⑦ |①-②-|
口口口③ |③-④-|
口口口口 |--⑤-|
④④①① |⑥-⑦-|
75
④④口口 |①---|
口③③口 |②---|
口口②② |③---|
口口口① |④---|
76
口口④口 |①-②-|
②⑤口① |③---|
口③③⑥ |④-⑤-|
①⑦口② |⑥-⑦-|
77
①④口① |①---|
③口⑤② |②-③-|
口⑥口口 |--④-|
③口口② |⑤-⑥-|
78
④④①⑤ |--①-|
口②口⑤ |②---|
口口①口 |--③-|
口②③③ |④-⑤-|
79
口口③口 |①---|
②④①口 |②---|
口①④② |③---|
口③口口 |④---|
80
口①口口 |①-②-|
口口②④ |③-④-|
口③口口 |⑤-⑥-|
⑤⑥⑦⑧ |⑦-⑧-|
81
①口③口 |①---|
口口口口 |--②-|
④口口② |--③-|
口口⑤口 |④-⑤-|
82
①①口口 |①---|
口②②口 |②---|
口口③③ |③---|
口④④口 |--④-|
83
②口口① |--①-|
口④③口 |②-③-|
⑥口口⑤ |④-⑤-|
口口⑦口 |⑥-⑦-|
84
口口④口 |----|
口③口口 |----|
口口②口 |①-②-|
①口口口 |③-④-|
85
①④口① |①---|
③口⑤② |②-③-|
③⑥口② |--④-|
口口口口 |⑤-⑥-|
86
③口①口 |--①-|
③②口口 |②---|
⑤⑤①口 |--③-|
口②④④ |④-⑤-|
87
④④②② |①---|
④④②② |②---|
口口③③ |③---|
①口口口 |④---|
88
口⑥⑥④ |①---|
口口口口 |②-③-|
⑤②口⑦ |④-⑤-|
①⑤③① |⑥-⑦-|
89
①口口口 |①---|
③口口② |--②-|
口⑤口口 |--③-|
口口④口 |④-⑤-|
90
③口②① |①---|
口口口口 |②---|
口口口口 |③---|
口②口③ |----|
91
口口口口 |①---|
口③②口 |----|
口②③口 |②---|
①口①口 |③---|
92
②口口① |①---|
口口④口 |②-③-|
③⑤口口 |--④-|
①口口② |⑤---|
93
①②口① |----|
②口口② |----|
①口②① |①---|
口口口口 |②---|
94
口口②④ |①---|
口①①口 |②---|
口②口④ |③---|
口③③口 |④---|
95
①口口口 |①---|
口口②口 |②---|
①③口口 |③---|
④口口口 |④---|
96
①口口口 |①---|
口②口口 |②---|
口口③口 |③---|
口口口④ |④---|
97
③口④③ |①-②-|
口⑤口口 |--③-|
口口口口 |--④-|
口①②⑥ |⑤-⑥-|
98
口口口口 |①---|
①口口① |----|
②③④⑤ |②③④⑤|
⑥⑦⑧⑨ |⑥⑦⑧⑨|
99
①③口③ |①---|
②②口口 |②---|
口口口口 |③---|
口口口口
100
③口③口 |①---|
口口口口 |②---|
口口①口 |③---|
口口②②
101
口口口① |①---|
口②①口 |②---|
②口口① |③---|
口②③口
102
口②口③ |①---|
②口口① |②---|
口②①口 |③---|
口口口①
103
口口①口 |①---|
③口③口 |②---|
口口口② |③---|
口口②口
104
口①口口 |①---|
口③口③ |②---|
②口口口 |③---|
口②口口
105
口口口① |①---|
③口③口 |②---|
口口口口 |③---|
口口②②
106
③口口③ |①-②-|
口口口口 |③---|
口②①口 |----|
口口口口
107
⑥口②口 |①---|
口⑤口口 |②---|
口口④口 |③-④-|
①口口③ |⑤-⑥-|
108
口④④口 |①-②-|
③⑤①③ |--③-|
②口⑤① |--④-|
口②口口 |--⑤-|
109
②口口① |--①-|
③口口③ |②-③-|
③口口③ |----|
①口口② |----|


不確定度: 0

最終更新:2013年12月15日 00:48