ほしふり
Sana

EXTREME

Level: 9
BPM: 155
Notes: 592

1
口口口口 |----|
口口口口 |----|
口口口口 |----|
口口口口 |----|
2
口口①口 |①-②-|
口②口口 |③-④-|
⑤口⑦④ |--⑤-|
口⑥③口 |⑥-⑦-|
3
口③⑦① |--①-|
④口②口 |②-③-|
口⑤口口 |④-⑤-|
口口⑥口 |⑥-⑦-|
4
口口口⑤ |①-②-|
口①⑥口 |③-④-|
②⑦④口 |--⑤-|
口③口口 |⑥-⑦-|
5
①①口口 |--①-|
口口④口 |----|
③口口口 |--②-|
口②口口 |③-④-|
6
口口①① |①-②-|
④④⑤口 |③-④-|
口⑥③口 |--⑤-|
⑦⑦口② |⑥-⑦-|
7
口④①口 |--①-|
③②⑤口 |②-③-|
③口口⑥ |--④-|
口口口口 |⑤-⑥-|
8
口⑤④口 |①---|
口口口口 |--②-|
口③②口 |③---|
口①口口 |④-⑤-|
9
口⑤口⑧ |--①-|
⑨口②⑥ |----|
③⑦口口 |②③④⑤|
口口④① |⑥⑦⑧⑨|
10
口口③口 |①--②|
口口③口 |--③-|
口口①① |----|
②口口口 |----|
11
①⑤口⑥ |①②③④|
口口②口 |⑤⑥⑦⑧|
⑦口④口
③口⑧口

口口⑩口
⑬⑨⑯口
口⑪口⑭ |⑨⑩⑪⑫|
⑮口口⑫ |⑬⑭⑮⑯|
12
①①口口 |①--②|
口口口口 |--③-|
口③②口 |----|
口③口口 |----|
13
口⑧③口 |①②③④|
②口口口 |⑤⑥⑦⑧|
口⑥口①
口④⑦⑤

⑫口口口
口⑯⑬⑨
⑩口⑪⑮ |⑨⑩⑪⑫|
⑭口口口 |⑬⑭⑮⑯|
14
口口①① |①--②|
口口口口 |--③-|
口②③口 |----|
口口③口 |----|
15
③口口⑧ |①②③④|
⑦口④口 |⑤⑥⑦⑧|
①口②口
口⑤⑥口

口口⑭口
口⑬⑯口
⑮⑨口⑩ |⑨⑩⑪⑫|
⑪口口⑫ |⑬⑭⑮⑯|
16
①①口口 |①--②|
口口口口 |--③-|
口③②口 |----|
口③口口 |----|
17
⑤口④口 |①②③④|
口①②⑧ |⑤⑥⑦⑧|
⑦口口口
③口口⑥

口⑮⑯口
口⑬⑭口
口⑪⑫口 |⑨⑩⑪⑫|
口⑨⑩口 |⑬⑭⑮⑯|
18
①口⑤③ |①-②-|
①⑥口口 |③-④-|
④口口② |--⑤-|
④口⑦⑦ |⑥-⑦-|
19
⑤口口① |--①-|
口⑥④口 |②-③-|
②口口③ |--④-|
口口口口 |⑤-⑥-|
20
口⑤④口 |①---|
⑤口口④ |--②-|
②②口口 |--③-|
③口①① |④-⑤-|
21
口口口口 |----|
口口口口 |----|
口口口口 |----|
口口口口 |----|
22
口口口① |----|
口口口口 |----|
②口口口 |--①-|
口口口③ |②-③-|
23
口口口② |①---|
口①口口 |--②-|
口口口口
口口口口

口口口口
口④③口
口口口口 |----|
口口口口 |③-④-|
24
③口口口 |----|
口口口口 |----|
口口②口 |--①-|
口①口口 |②-③-|
25
口口口口 |①---|
口④③① |--②-|
口口口口 |----|
口口口② |③-④-|
26
口口口口 |----|
②口口口 |----|
口口①口 |--①-|
口③口口 |②-③-|
27
口口口① |①---|
口口口口 |--②-|
口口②口 |----|
口口口口 |----|
28
口口①口 |----|
口②口口 |----|
口口口③ |--①-|
口口口口 |②-③-|
29
口口口口 |①---|
口口口口 |--②-|
口④③口 |----|
①口②口 |③-④-|
30
②口口⑤ |①--②|
口口口③ |--③-|
⑥口口⑦ |④-⑤-|
①④口口 |⑥-⑦-|
31
①②口口 |①②--|
口⑥⑤口 |--③④|
口口口口 |----|
口口④③ |⑤-⑥-|
32
①口口② |--①②|
③口口④ |③④⑤⑥|
⑤口口⑥
口口口口

⑪口口口
口口口口
口口⑩口 |⑦⑧⑨-|
⑦⑨口⑧ |⑩-⑪-|
33
口口口口 |①②--|
口口②① |--③④|
口口口口
③④口口

口口口口
口⑥⑤口
口口口口 |----|
口口口口 |⑤-⑥-|
34
①口⑨② |--①②|
③⑧口④ |③④⑤⑥|
⑤口口⑥ |⑦-⑧-|
⑦⑩口口 |⑨-⑩-|
35
口③口① |①-②-|
口⑥口⑤ |③-④-|
②口口⑦ |⑤-⑥-|
⑧口④口 |⑦-⑧-|
36
口⑥口⑤ |①②③④|
④口①口 |⑤⑥⑦⑧|
口②⑦口
口⑧③口

⑭口⑬口
口⑩⑮⑨
口⑯口口 |⑨⑩⑪⑫|
⑫口口⑪ |⑬⑭⑮⑯|
37
⑤口⑥③ |①--②|
②口口③ |--③-|
②口口④ |--④-|
口口①口 |⑤-⑥-|
38
⑤口口⑥ |①②③-|
③⑦⑧④ |④---|
⑨①②⑩ |⑤⑥⑦⑧|
③⑪⑫④ |⑨⑩⑪⑫|
39
口①①口 |①---|
②口口③ |②-③-|
口②③口
②口口③

口④口口
口口口口
口口口口 |----|
口口④口 |④---|
40
②④①③ |①---|
口②③⑤ |②-③-|
②口口③ |--④-|
⑥①口口 |⑤-⑥-|
41
口口③口 |①---|
口②②③ |----|
④口①口 |②---|
口④口口 |③-④-|
42
口①口口 |--①-|
①口口口 |--②-|
口③③② |----|
口口②口 |③---|
43
①口口① |①---|
口口口口 |--②-|
口口口口
口②②口

口⑤口⑤
④口④口
口③口③ |--③-|
口口口口 |④--⑤|
44
口口①② |----|
口①口口 |--①-|
③口口口 |--②-|
口口口④ |③-④-|
45
④口⑦口 |①②③-|
口⑥口⑤ |④-⑤-|
口②①口 |--⑥-|
⑧口③口 |⑦-⑧-|
46
②④⑤① |①--②|
③⑥⑦③ |--③-|
②⑧⑨① |④⑤⑥⑦|
⑩③③⑪ |⑧⑨⑩⑪|
47
①③口① |①-②-|
口口口③ |--③-|
③口口②
口口口口

⑤口⑤口
口口口口
口④口口 |--④-|
口⑥口⑥ |⑤-⑥-|
48
口④口② |--①-|
⑥口③口 |②-③-|
①⑤口④ |④--⑤|
口口⑥口 |--⑥-|
49
⑥口⑥口 |--①-|
⑤③②④ |②-③-|
口④①口 |④-⑤-|
②⑦口⑦ |⑥-⑦-|
50
口④口① |--①-|
口口①口 |②-③-|
②⑤⑤口 |--④-|
口口③口 |⑤---|
51
口④①口 |①-②-|
①②口④ |③-④-|
④口口①
口①④③

口口⑥口
⑥口口口
口⑤⑤⑥ |--⑤-|
口⑥口口 |--⑥-|
52
④③口① |--①-|
口口⑤③ |②-③-|
③⑥口口 |--④-|
②口③口 |⑤-⑥-|
53
口⑤①口 |①---|
①口②⑤ |----|
⑤③口① |②-③-|
口①⑤④ |④-⑤-|
54
口口口口 |--①-|
口①口口 |----|
口口①口
口口口口

②口⑨口
口⑧③口
④口口⑦ |②③④⑤|
口⑥⑤口 |⑥⑦⑧⑨|
55
③④口③ |①-②-|
①口口② |③-④-|
口③③口
①口口②

口口口口
⑥口口⑦
⑥口口⑦ |⑤---|
口⑤⑤口 |⑥-⑦-|
56
口①口① |----|
口②②口 |①---|
口④④口 |②--③|
③口③口 |--④-|
57
①口②口 |----|
口③口④ |①-②-|
②口⑤口 |③---|
口④口口 |④-⑤-|
58
口口①口 |--①-|
①口②口 |----|
口②口① |----|
口口口口 |②---|
59
口③①口 |①---|
①②口③ |②-③-|
③口口①
口①③口

口口⑤口
⑤口口口
口口④⑤ |--④-|
口⑤口口 |--⑤-|
60
①口口口 |--①-|
口⑥②口 |②-③-|
口③⑦口 |④-⑤-|
⑤口口④ |--⑥⑦|
61
②①⑤口 |①---|
⑤④②① |--②-|
①③口⑤ |③---|
口⑤①③ |④-⑤-|
62
口②口② |--①-|
口口③口 |----|
口口①口 |②---|
①口口口 |③---|
63
③⑤口口 |①-②-|
口④口口 |③-④-|
⑥②口口 |--⑤-|
①口①口 |--⑥-|
64
口口④口 |--①-|
口口⑤③ |②-③-|
口口②⑤ |④--⑤|
口口⑥① |--⑥-|
65
④⑤口口 |①-②-|
口③口口 |③-④-|
②口口口 |--⑤-|
⑥①口口 |--⑥-|
66
口口⑥① |--①-|
口口②⑤ |②-③-|
口口⑤③ |④--⑤|
口口④口 |--⑥-|
67
口④口口 |①-②-|
③⑤口④ |③-④-|
口②口口 |--⑤-|
①⑥口① |--⑥-|
68
口口口⑥ |--①-|
口口④⑤ |②-③-|
口口⑤③ |④--⑤|
口口②① |--⑥-|
69
口④口口 |①-②-|
③口口口 |③-④-|
口②口口
①口口口

⑤口口口
口口口口
口⑥口口 |--⑤-|
口口口口 |--⑥-|
70
口②③口 |----|
④①①⑤ |①---|
口⑥⑦口 |②③④⑤|
⑧口口⑨ |⑥⑦⑧⑨|
71
①⑤⑥② |①②③④|
⑨③④⑧ |⑤-⑥-|
⑤⑨⑧⑥ |⑦-⑧-|
口⑦口口 |⑨---|
72
口①⑤口 |①②③-|
口⑤②⑤ |--④-|
⑤口⑤④ |⑤---|
③⑤口口 |----|
73
口口口口 |----|
口口①口 |----|
口②口口 |--①②|
口口③口 |③---|


不確定度: 0

最終更新:2013年11月11日 13:51