ZED
USAO

EXTREME

Level: 10
BPM: 190
Notes: 869

1
口口口口 |----|
口口口口 |----|
口口口口 |----|
口口口口 |----|
2
口①口口 |①---|
②口口① |--②-|
口③②口 |----|
口口口③ |③---|
3
口口口口 |----|
口口口口 |----|
口口口口 |----|
口口口口 |----|
4
口口口③ |①---|
口③②口 |--②-|
②口口① |----|
口①口口 |③---|
5
口口口口 |----|
口口口口 |----|
口口口口 |----|
口口口口 |----|
6
口口①口 |①---|
①口口② |--②-|
口②③口 |----|
③口口口 |③---|
7
口口口口 |----|
口口口口 |----|
口口口口 |----|
口口口口 |----|
8
口③口口 |①---|
②口口③ |--②-|
口①②口 |----|
口口口① |③---|
9
口口口口 |----|
口口口口 |----|
口口口口 |----|
口口口口 |----|
10
口①口③ |①---|
②口口① |--②-|
①④②口 |③---|
口口口④ |④---|
11
口口口④ |①--②|
口口口口 |--③-|
③口口口 |④---|
①口②口 |----|
12
③口口④ |①---|
口④②口 |--②-|
②口口① |③---|
口①口口 |④---|
13
⑤⑤口口 |①--②|
口口口口 |--③④|
口③④口 |⑤---|
口①口② |----|
14
③口①口 |①---|
①口口② |--②-|
口②④口 |③---|
④口口口 |④---|
15
④口口口 |①--②|
口口口口 |--③-|
口口口③ |④---|
口②口① |----|
16
口④口口 |①---|
②口口④ |--②-|
口①②口 |③---|
③口口① |④---|
17
口口⑤⑤ |①--②|
口口口口 |--③④|
口④③口 |⑤---|
口②口① |----|
18
口①口口 |①---|
①口②口 |--②-|
口②口口 |----|
口③口口 |③---|
19
口口①口 |①---|
口②口① |--②-|
③口②④ |--③④|
⑤⑥⑦⑧ |⑤⑥⑦⑧|
20
③①口口 |①---|
①口②口 |--②-|
口②口口 |----|
口口口口 |③---|
21
口口①口 |①---|
口②口① |--②-|
口口②口 |----|
③口口口 |③---|
22
口口口口 |①---|
③口②口 |--②-|
口②口① |----|
口口①口 |③---|
23
口口①口 |①---|
口②口① |--②-|
③口②④ |--③④|
⑤⑥⑦⑧ |⑤⑥⑦⑧|
24
口①口口 |①---|
①口②口 |--②-|
口②口口 |----|
③口口口 |③---|
25
口口①口 |①---|
口②口① |--②-|
③口②④ |--③④|
⑤⑥⑦⑧ |⑤⑥⑦⑧|
26
①口口口 |①-②-|
⑤口②⑥ |③-④-|
口③④口 |⑤-⑥-|
⑦口口⑧ |⑦-⑧-|
27
①口⑥② |①-②-|
口⑤口⑧ |③-④-|
③口④口 |⑤-⑥-|
⑦口口口 |⑦-⑧-|
28
③①口口 |①②③④|
口口⑧口 |⑤⑥⑦⑧|
⑦口口②
口⑤⑥④

口口口⑩
⑬⑮口⑭
口⑨⑫⑯ |⑨⑩⑪⑫|
⑪口口口 |⑬⑭⑮⑯|
29
①①①③ |①---|
口口③口 |②---|
口③口口 |③---|
③②②② |----|
30
③④口口 |①---|
口口⑤② |--②-|
③⑥①① |③---|
口口口② |④-⑤-⑥-|
31
⑤⑥口⑥ |①--②|
口⑤口口 |--③④|
③口口④ |⑤---|
②②①口 |⑥---|
32
口⑤口口 |①--②|
口③⑥① |--③-|
④⑦②口 |④---|
④③②① |⑤-⑥-⑦-|
33
⑤⑥⑦① |①-②-③-|
②口口口 |④---|
口⑧口③ |⑤-⑥-⑦-|
⑧④口口 |⑧---|
34
②④口口 |①---|
①①⑤③ |--②-|
②⑥口口 |③---|
口口口③ |④-⑤-⑥-|
35
口口⑤⑤ |①--②|
⑥④⑥口 |--③④|
口口③口 |⑤---|
②口①口 |⑥---|
36
④①口口 |①---|
口③口① |②-③-|
口⑤口③ |--④-|
②口口⑤ |⑤---|
37
口⑥⑤⑤ |①--②|
口④③⑦ |--③④|
②⑧①口 |⑤---|
口口口⑨ |⑥⑦⑧⑨|
38
③口④口 |①---|
口⑤②口 |--②-|
③口⑥口 |③---|
①①②口 |④-⑤-⑥-|
39
⑤⑤口口 |①--②|
口⑥④⑥ |--③④|
口③口② |⑤---|
口①口口 |⑥---|
40
口口⑤口 |①--②|
①⑥④口 |--③-|
②口⑦③ |④---|
①②③④ |⑤-⑥-⑦-|
41
口④口① |①-②-③-|
②⑧⑤③ |④---|
口⑥口口 |⑤-⑥-⑦-|
口⑧⑦口 |⑧---|
42
④⑤⑥⑦ |①②③④|
③⑭⑮⑧ |⑤⑥⑦⑧|
②⑬⑯⑨ |⑨⑩⑪⑫|
①⑫⑪⑩ |⑬⑭⑮⑯|
43
②口口③ |①--②|
⑤口⑤口 |--③-|
口口口口 |④---|
①口④④ |⑤---|
44
④①口口 |①---|
口③口① |②-③-|
口⑤口③ |--④-|
口②口⑤ |⑤---|
45
⑤⑤⑥口 |①--②|
⑦③④口 |--③④|
口口口⑧ |⑤---|
①⑨②口 |⑥⑦⑧⑨|
46
口③④③ |①---|
口⑤口① |--②-|
口口⑥口 |③---|
②口②① |④-⑤-⑥-|
47
⑤⑤⑦⑦ |①--②|
口口④口 |--③④|
口③口口 |⑤-⑥-|
⑥①⑥② |⑦---|
48
口口⑤口 |①--②|
①②③④ |--③-|
①⑥③口 |④---|
口②⑦④ |⑤-⑥-⑦-|
49
①口口口 |①-②-③-|
口⑦⑥⑤ |④---|
口口④② |⑤-⑥-⑦-|
③⑧口⑧ |⑧---|
50
③③④口 |①---|
口⑤口口 |--②-|
口①②② |③---|
①口①⑥ |④-⑤-⑥-|
51
⑤⑤⑦口 |①--②|
⑦口口口 |--③④|
口③④⑥ |⑤-⑥-|
①⑥②口 |⑦---|
52
④口口① |①---|
口①③口 |②-③-|
③口口⑤ |--④-|
口⑤口② |⑤---|
53
⑪口②⑫ |①--②|
①⑨④口 |--③④|
⑦③⑩⑧ |⑤⑥⑦⑧|
⑤口口⑥ |⑨⑩⑪⑫|
54
口①口口 |①---|
①口③口 |②-③-|
口③口口 |----|
口②口④ |④---|
55
口口①口 |①---|
口③口① |②-③-|
⑤②③④ |--④⑤|
⑨⑧⑦⑥ |⑥⑦⑧⑨|
56
口口①口 |①---|
口③口① |②-③-|
口②③口 |----|
口口口④ |④---|
57
口①口口 |①---|
①口③口 |②-③-|
口③②④ |----|
口口口口 |④---|
58
口口口口 |①---|
口③口口 |②-③-|
①口③口 |----|
②①口④ |④---|
59
口①口口 |①---|
①②③口 |②-③-|
⑤③口④ |--④⑤|
⑨⑧⑦⑥ |⑥⑦⑧⑨|
60
口口①② |①---|
口③口① |②-③-|
口口③口 |----|
口口口④ |④---|
61
口①口口 |①---|
①②③口 |②-③-|
④③口⑤ |--④⑤|
⑥⑦⑧⑨ |⑥⑦⑧⑨|
62
①①⑥④ |①-②-|
口③口② |③-④-|
⑤⑦⑧口 |⑤-⑥-|
口⑨⑩口 |⑦⑧⑨⑩|
63
口口⑥口 |①-②-|
①③口② |③-④-|
⑤⑦⑧④ |⑤-⑥-|
①⑨⑩口 |⑦⑧⑨⑩|
64
①①口口 |①-②-|
⑤③④口 |③-④-|
⑤⑦⑧⑥ |⑤-⑥-|
③⑨⑩② |⑦⑧⑨⑩|
65
口①口④ |①-②-|
口⑤口④ |③-④-|
口⑦⑧⑥ |⑤-⑥-|
③⑨⑩② |⑦⑧⑨⑩|
66
口①②口 |①-②-|
①⑤口④ |③-④-|
口⑦⑧口 |⑤-⑥-|
③⑨⑩⑥ |⑦⑧⑨⑩|
67
①口④口 |①-②-|
口⑤口口 |③-④-|
③⑦⑧② |⑤-⑥-|
口⑨⑩⑥ |⑦⑧⑨⑩|
68
口⑦⑧口 |①-②-|
③⑤④② |③-④-|
口⑦口④ |⑤-⑥-|
①口口⑥ |⑦-⑧-|
69
①口口⑧ |①-②-|
⑤口④口 |③-④-|
口口口⑥ |⑤-⑥-|
③⑦②口 |⑦-⑧-|
70
②口口⑧ |①-②-|
口①⑦口 |③-④-|
口③⑤口 |⑤-⑥-|
④口口⑥ |⑦-⑧-|
71
口①⑧口 |①-②-|
②口口⑦ |③-④-|
③口口⑥ |⑤-⑥-|
口④⑤口 |⑦-⑧-|
72
②⑨⑯⑧ |①②③④|
⑩①⑦⑮ |⑤⑥⑦⑧|
⑪③⑤⑭ |⑨⑩⑪⑫|
④⑫⑬⑥ |⑬⑭⑮⑯|
73
③口口口 |①---|
③①②口 |②---|
③①②口 |③---|
③口口口 |----|
74
口③口③ |①-②-|
⑥①口① |③-④-|
④口⑦口 |⑤-⑥-|
⑧⑨②⑤ |⑦-⑧⑨|
75
③口③口 |①-②-|
口口口口 |③-④-|
口②口④
口口①口

口口口口
口口⑦⑥
⑤口口口 |⑤-⑥⑦|
⑧口⑩⑨ |⑧-⑨⑩|
76
口③口③ |①-②-|
①口口口 |③-④-|
口④②口
口口口口

口口口口
⑦⑧口口
⑤口口⑤ |⑤---|
⑥⑤口⑥ |⑥-⑦⑧|
77
④口④口 |①-②③|
⑩口③② |④-⑤-|
⑤口⑨⑥ |⑥-⑦⑧|
⑦⑧①口 |⑨-⑩-|
78
口③口③ |①-②-|
口口口⑥ |③-④-|
⑤②⑨⑧ |⑤-⑥-|
⑦口④① |⑦-⑧⑨|
79
③口③口 |①-②-|
①⑤⑦⑥ |③-④-|
口口⑩⑨ |⑤-⑥⑦|
⑧口④② |⑧-⑨⑩|
80
口①口① |①-②-|
④口口口 |③-④-|
②口口口
口口④③

⑧口⑤⑧
口⑥口⑦
口⑦口口 |⑤-⑥-|
口口口口 |⑦-⑧-|
81
⑪口④⑫ |①-②-|
口⑨①口 |③-④-|
⑦口⑩⑧ |⑤⑥⑦⑧|
⑤②③⑥ |⑨⑩⑪⑫|
82
⑧①口口 |①-②-|
①口④② |③-④-|
⑥④口口 |⑤-⑥-|
口③⑤⑦ |⑦-⑧-|
83
口⑤①② |①-②-|
口④口① |③-④-|
⑦③④⑥ |⑤-⑥⑦|
⑪⑩⑨⑧ |⑧⑨⑩⑪|
84
⑥口①⑤ |①-②-|
②④口① |③-④-|
口③④口 |⑤-⑥-|
⑧口口⑦ |⑦-⑧-|
85
口①口口 |①-②-|
①口④② |③-④-|
口④③口
口口口口

⑤⑧⑥口
口口口口
口口口⑦ |⑤-⑥-|
口口口口 |⑦-⑧-|
86
口口口口 |①-②-|
口④口② |③-④-|
①口④口
③①口口

⑤口⑥口
口口口口
口口口口 |⑤-⑥-|
口⑧口⑦ |⑦-⑧-|
87
⑤①口口 |①-②-|
①③④② |③-④-|
⑦④口⑥ |⑤-⑥⑦|
⑪⑩⑨⑧ |⑧⑨⑩⑪|
88
口口①③ |①-②-|
②④口① |③-④-|
口口④口
口口口口

⑥口口口
口口⑤⑧
口口口⑦ |⑤-⑥-|
口口口口 |⑦-⑧-|
89
⑪①②⑫ |①-②-|
①⑨④口 |③-④-|
⑦④⑩⑧ |⑤⑥⑦⑧|
⑤③口⑥ |⑨⑩⑪⑫|
90
口①口口 |①-②-|
①口④② |③-④-|
口④口口
口③口口

口口口口
⑧口口口
⑥口口口 |⑤-⑥-|
口口⑤⑦ |⑦-⑧-|
91
⑤口①② |①-②-|
口④口① |③-④-|
⑦③④⑥ |⑤-⑥⑦|
⑪⑩⑨⑧ |⑧⑨⑩⑪|
92
⑤口①⑥ |①-②-|
②④口① |③-④-|
口③④口 |⑤-⑥-|
口⑧口⑦ |⑦-⑧-|
93
⑤①②口 |①-②-|
①口④⑧ |③-④-|
口④③⑦ |⑤-⑥-|
口口⑥口 |⑦-⑧-|
94
⑥②口口 |①-②-|
口④口⑧ |③-④-|
①⑤④口 |⑤-⑥-|
③①口⑦ |⑦-⑧-|
95
⑤①口② |①-②-|
①③④口 |③-④-|
⑦④口⑥ |⑤-⑥⑦|
⑪⑩⑨⑧ |⑧⑨⑩⑪|
96
口⑥①⑤ |①②③④|
②④⑦① |⑤⑥⑦⑧|
口⑧③口
口口口口

⑩口口口
⑯口口⑮
⑫口口⑨ |⑨⑩⑪⑫|
口⑭⑬⑪ |⑬⑭⑮⑯|
97
⑩⑥①⑤ |①②③④|
⑯④⑨⑮ |⑤⑥⑦⑧|
⑫⑧③⑦ |⑨⑩⑪⑫|
②⑭⑬⑪ |⑬⑭⑮⑯|
98
口口①口 |①---|
口口口口 |----|
口口①口 |----|
口口口口 |----|


不確定度: 0

最終更新:2013年11月11日 13:54