晴天Bon Voyage
TOMOSUKE × seiya-murai feat. ALT

BASIC

Level: 5
BPM: 230
Notes: 353

1
口口口口 |----|
口口口口 |----|
口口口口 |----|
口口口口
2
口口口口 |----|
口口口口 |----|
口口口口
口口口口
3
①①口口 |①---|
口口口口 |----|
口口口口 |----|
口口口口
4
口口口口 |----|
口口口口 |----|
口口口口
口口口口
5
口口口口 |①---|
口口①① |----|
口口口口 |----|
口口口口
6
口口口口 |----|
口口口口 |----|
口口口口
口口口口
7
口口口口 |①---|
口口口口 |----|
①①口口 |----|
口口口口
8
口口口口 |----|
口口口口 |----|
口口口口
口口口口
9
口口口口 |①---|
口口口口 |----|
口口口口 |----|
口口①①
10
口口口口 |----|
口口口口 |----|
口口口口
口口口口
11
口①①口 |①---|
口口口口 |----|
口口口口 |----|
口口口口
12
口口口口 |----|
口口口口 |----|
口口口口
口口口口
13
口口口口 |①---|
口①①口 |----|
口口口口 |----|
口口口口
14
口口口口 |----|
口口口口 |----|
口口口口
口口口口
15
口口口口 |①---|
口口口口 |----|
口①①口 |----|
口口口口
16
口口口口 |----|
口口口口 |----|
口口口口
口口口口
17
口口口口 |①---|
口口口口 |----|
口口口口 |----|
口①①口
18
口口口口 |----|
口口口口 |----|
口口口口
口口口口
19
①口口② |①---|
口口口口 |--②-|
口口口口 |----|
口口口口
20
口口口口 |①---|
口口口口 |②---|
口①②口
口口口口
21
口口口口 |①---|
口口口口 |--②-|
口口口口 |----|
①口口②
22
口口口口 |①---|
口①②口 |②---|
口口口口
口口口口
23
①口口② |①---|
口口口口 |--②-|
口口口口 |----|
口口口口
24
口口口口 |①---|
口口口口 |②---|
口①②口
口口口口
25
口①①口 |----|
②口口② |①---|
口口口口 |②---|
口口口口
26
口口口口 |①---|
口口口口 |②---|
①口口①
口②②口
27
①口口② |①---|
口口口口 |--②-|
口口口口 |----|
口口口口
28
口口口口 |①---|
口口口口 |②---|
口①②口
口口口口
29
口口口口 |①---|
口口口口 |--②-|
口口口口 |----|
①口口②
30
口口口口 |①---|
口①②口 |②---|
口口口口
口口口口
31
①口口② |①---|
口口口口 |--②-|
口口口口 |----|
口口口口
32
口口口口 |①---|
口口口口 |②---|
口①②口
口口口口
33
口①①口 |----|
②口口② |①---|
口口口口 |②---|
口口口口
34
口口口口 |①---|
口口口口 |②---|
①口口①
口②②口
35
口口口口 |①---|
口①①口 |--②-|
口②②口 |----|
口口口口
36
口口口口 |①---|
①口口② |②---|
①口口②
口口口口
37
口口口口 |①---|
口①①口 |--②-|
口②②口 |----|
口口口口
38
口口口口 |①---|
①口口② |②---|
①口口②
口口口口
39
口口口口 |①---|
口①①口 |--②-|
口②②口 |----|
口口口口
40
口口口口 |①---|
①口口② |②---|
①口口②
口口口口
41
口口口口 |①---|
口①①口 |--②-|
口②②口 |----|
口口口口
42
口口口口 |①---|
①口口② |②---|
①口口②
口口口口
43
①口口② |①---|
口口口口 |--②-|
口口口口 |----|
口口口口
44
口口口口 |①---|
口口口口 |②---|
口①②口
口口口口
45
口口口口 |①---|
口口口口 |--②-|
口口口口 |----|
①口口②
46
口口口口 |①---|
口①②口 |②---|
口口口口
口口口口
47
①口口② |①---|
口口口口 |--②-|
口口口口 |----|
口口口口
48
口口口口 |①---|
口口口口 |②---|
口①②口
口口口口
49
口①①口 |----|
②口口② |①---|
口口口口 |②---|
口口口口
50
口口口口 |①---|
口口口口 |②---|
①口口①
口②②口
51
①口口② |①---|
口口口口 |--②-|
口口口口 |----|
口口口口
52
口口口口 |①---|
口口口口 |②---|
口①②口
口口口口
53
口口口口 |①---|
口口口口 |--②-|
口口口口 |----|
①口口②
54
口口口口 |①---|
口①②口 |②---|
口口口口
口口口口
55
①口口② |①---|
口口口口 |--②-|
口口口口 |----|
口口口口
56
口口口口 |①---|
口口口口 |②---|
口①②口
口口口口
57
口①①口 |----|
②口口② |①---|
口口口口 |②---|
口口口口
58
口口口口 |①---|
口口口口 |②---|
①口口①
口②②口
59
②口口② |①---|
口①①口 |--②-|
口口口口 |----|
口口口口
60
口②口口 |①---|
口口口口 |--②-|
口①①口
口口口口
61
口口①口 |--①-|
口口口口 |----|
口口口口 |----|
口口口口
62
口口口口 |----|
口口口口 |----|
口口口口
口口口口
63
口口口口 |①---|
②口口② |--②-|
口口口口 |----|
口①①口
64
②②口口 |①---|
口口口口 |--②-|
口①①口
口口口口
65
口口①① |--①-|
口口口口 |----|
口口口口 |----|
口口口口
66
口口口口 |----|
口口口口 |----|
口口口口
口口口口
67
①口口① |①---|
②口口② |--②-|
口口口口 |----|
口口口口
68
口口口口 |①---|
口②口口 |②---|
①②口①
口口口口
69
口口口口 |①---|
口口①口 |--②-|
口口①口 |--③-|
口②③口
70
①口口① |----|
口口口口 |①---|
口口口口
口口口口
71
口口口口 |①---|
口口口口 |--②-|
②口口② |----|
①口口①
72
口口口口 |①---|
①口口① |----|
口口口口
口口口口
73
口口口口 |----|
口口口口 |----|
口口口口 |----|
口口口口
74
口口口口 |----|
口口口口 |----|
口口口口
口口口口
75
口口口口 |----|
口口口口 |----|
口口口口 |----|
口口口口
76
口口口口 |----|
口口口口 |----|
口口口口
口口口口
77
口口口口 |----|
口口口口 |----|
口口口口 |----|
口口口口
78
口口口口 |----|
口口口口 |----|
口口口口
口口口口
79
口口口口 |①---|
口③口口 |----②-|
口口②口 |----|
口①口口 |③---|
80
①口口① |----|
口口口口 |①---|
口②口口 |----|
口口口口 |②---|
81
②口口② |①---|
口①①口 |----②-|
口口口口 |----|
③口口③ |③---|
82
口口口口 |----|
口口②口 |①---|
口①①口 |----|
口口口口 |②---|
83
口口口口 |①---|
③①口③ |----②-|
②口口② |----|
口口口口 |③---|
84
口①①口 |----|
口口口口 |①---|
口口口口 |----|
口口口口 |----|
85
口口口口 |①---|
口①①口 |----②-|
口②②口 |----|
口③③口 |③---|
86
口口口口 |----|
口口口口 |①---|
①口口① |----|
口口口口 |----|
87
口口口口 |①---|
口③口口 |----②-|
口口②口 |----|
口①口口 |③---|
88
①口口① |----|
口口口口 |①---|
口②口口 |----|
口口口口 |②---|
89
口①①口 |①---|
口②②口 |----②-|
口口口口 |----|
③口口③ |③---|
90
口口口口 |----|
口口②口 |①---|
口①①口 |----|
口口口口 |②---|
91
口口口口 |①---|
③①口③ |----②-|
②口口② |----|
口口口口 |③---|
92
口①①口 |----|
口口口口 |①---|
口口口口 |----|
口口口口 |----|
93
口口口口 |①---|
口①①口 |----②-|
口②②口 |----|
口③③口 |③---|
94
口口口口 |----|
口口口口 |①---|
①口口① |----|
口口口口 |----|
95
口①口口 |①---|
口口②口 |--②-|
口③口口 |----|
口口口口 |③---|
96
口口口口 |----|
口口口口 |----|
口口口口 |----|
口口口口 |----|
97
口口口口 |①---|
口③③口 |----|
②口口② |②---|
①口口① |--③-|
98
口①①口 |----|
口口口口 |①---|
口口口口 |----|
口口口口 |----|
99
口口口口 |----|
口口口口 |----|
口口口口 |----|
口口口口 |----|
100
①口口② |①---|
口口口口 |--②-|
口口口口 |----|
口口口口
101
口口口口 |①---|
口口口口 |②---|
口①②口
口口口口
102
口口口口 |①---|
口口口口 |--②-|
口口口口 |----|
①口口②
103
口口口口 |①---|
口①②口 |②---|
口口口口
口口口口
104
①口口② |①---|
口口口口 |--②-|
口口口口 |----|
口口口口
105
口口口口 |①---|
口口口口 |②---|
口①②口
口口口口
106
口①①口 |----|
②口口② |①---|
口口口口 |②---|
口口口口
107
口口口口 |①---|
口口口口 |②---|
①口口①
口②②口
108
①口口② |①---|
口口口口 |--②-|
口口口口 |----|
口口口口
109
口口口口 |①---|
口口口口 |②---|
口①②口
口口口口
110
口口口口 |①---|
口口口口 |--②-|
口口口口 |----|
①口口②
111
口口口口 |①---|
口①②口 |②---|
口口口口
口口口口
112
①口口② |①---|
口口口口 |--②-|
口口口口 |----|
口口口口
113
口口口口 |①---|
口口口口 |②---|
口①②口
口口口口
114
口①①口 |----|
②口口② |①---|
口口口口 |②---|
口口口口
115
口口口口 |①---|
口口口口 |②---|
①口口①
口②②口
116
口口口口 |----|
口口口口 |----|
口口口口 |----|
口口口口
117
口口口口 |----|
口口口口 |----|
口口口口
口口口口
118
口口口口 |----|
口口口口 |----|
口口口口 |----|
口口口口
119
口口口口 |----|
口口口口 |----|
口口口口
口口口口
120
口口口口 |----|
口口口口 |----|
口口口口 |----|
口口口口
121
口口口口 |----|
口口口口 |----|
口口口口
口口口口
122
口口口口 |----|
口口口口 |----|
口口口口 |----|
口口口口
123
口口口口 |----|
口口口口 |----|
口口口口
口口口口
124
口口口口 |①---|
口①①口 |--②-|
口②②口 |----|
口口口口
125
口口口口 |①---|
①口口② |②---|
①口口②
口口口口
126
口口口口 |①---|
口①①口 |--②-|
口②②口 |----|
口口口口
127
口口口口 |①---|
①口口② |②---|
①口口②
口口口口
128
口口口口 |①---|
口①①口 |--②-|
口②②口 |----|
口口口口
129
口口口口 |①---|
①口口② |②---|
①口口②
口口口口
130
口口口口 |①---|
口①①口 |--②-|
口②②口 |----|
口口口口
131
口口口口 |①---|
①口口② |②---|
①口口②
口口口口
132
①口口② |①---|
口口口口 |--②-|
口口口口 |----|
口口口口
133
口口口口 |①---|
口口口口 |②---|
口①②口
口口口口
134
口口口口 |①---|
口口口口 |--②-|
口口口口 |----|
①口口②
135
口口口口 |①---|
口①②口 |②---|
口口口口
口口口口
136
①口口② |①---|
口口口口 |--②-|
口口口口 |----|
口口口口
137
口口口口 |①---|
口口口口 |②---|
口①②口
口口口口
138
口①①口 |----|
②口口② |①---|
口口口口 |②---|
口口口口
139
口口口口 |①---|
口口口口 |②---|
①口口①
口②②口
140
①口口② |①---|
口口口口 |--②-|
口口口口 |----|
口口口口
141
口口口口 |①---|
口口口口 |②---|
口①②口
口口口口
142
口口口口 |①---|
口口口口 |--②-|
口口口口 |----|
①口口②
143
口口口口 |①---|
口①②口 |②---|
口口口口
口口口口
144
①口口② |①---|
口口口口 |--②-|
口口口口 |----|
口口口口
145
口口口口 |①---|
口口口口 |②---|
口①②口
口口口口
146
口①①口 |----|
②口口② |①---|
口口口口 |②---|
口口口口
147
口口口口 |①---|
口口口口 |②---|
①口口①
口②②口
148
口口①口 |----|
口②口口 |①---|
口口口口 |②---|
口口口口
149
口口口口 |①---|
口口口口 |②---|
口口①口
口②口口


不確定度: 0

最終更新:2013年10月01日 22:01