晴天Bon Voyage
TOMOSUKE × seiya-murai feat. ALT

ADVANCED

Level: 7
BPM: 230
Notes: 524

1
口口口口 |----|
口口口口 |----|
口口口口 |----|
口口口口
2
口口口口 |----|
口口口口 |----|
口口口口
口口口口
3
口①①口 |①---|
口口口口 |--②-|
口口口口 |----|
口②②口
4
口口口口 |①---|
①口口② |②---|
①口口②
口口口口
5
①口口① |①---|
口口口口 |--②-|
口口口口 |----|
②口口②
6
口口口口 |①---|
口①②口 |②---|
口口口口
口①②口
7
口①①口 |①---|
口口口口 |--②-|
口②②口 |----|
口口口口
8
①口口② |①---|
口口口口 |②---|
①口口②
口口口口
9
口口口口 |①---|
①口口① |--②-|
口口口口 |----|
②口口②
10
口口口口 |①---|
口①②口 |②---|
口①②口
口口口口
11
口①①口 |①---|
口口口口 |--②-|
口口口口 |----|
口②②口
12
口口口口 |①---|
①口口② |②---|
①口口②
口口口口
13
①口口① |①---|
口口口口 |--②-|
口口口口 |----|
②口口②
14
口口口口 |①---|
口①②口 |②---|
口口口口
口①②口
15
口①①口 |①---|
口口口口 |--②-|
口②②口 |----|
口口口口
16
①口口② |①---|
口口口口 |②---|
①口口②
口口口口
17
口口口口 |①---|
①口口① |--②-|
口口口口 |----|
②口口②
18
口口口口 |①---|
口①②口 |②---|
口①②口
口口口口
19
①口口② |①---|
口口口口 |--②-|
口③口口 |--③-|
口口口口
20
口②②口 |①---|
口口口口 |②---|
口口①口
口口口口
21
口口口口 |①---|
①④口口 |②-③-|
口口口口 |--④-|
口②③口
22
口口口口 |①---|
口口①口 |②---|
②口口②
口口口口
23
①口口② |①---|
口口口口 |--②-|
口③口口 |--③-|
口口口口
24
口②②口 |①---|
口口口口 |②---|
口口①口
口口口口
25
口口口口 |----|
口口①口 |①-②-|
口②口口 |③---|
口口③口
26
口口口口 |①---|
①口口① |②---|
口口口口
②口口②
27
④①②口 |①-②-|
口口口口 |--③-|
口③③口 |--④-|
口口口口
28
口口口① |①---|
口②②口 |②---|
口口口口
口口口口
29
口口口口 |①---|
②口口③ |②-③-|
④口口口 |--④-|
口①①口
30
口口口口 |①---|
口口口口 |②---|
口口口①
口②②口
31
口③口口 |①---|
口①①口 |--②-|
口②②口 |--③-|
口口口口
32
②口①② |①---|
口口口口 |②---|
口口口口
口口口口
33
口口口口 |----|
口口①口 |①-②-|
口②口口 |③---|
口口③口
34
口口口口 |①---|
①口口② |②---|
①口口②
口口口口
35
①口口② |--①-|
口口口口 |②---|
口口口口 |③-④-|
③口口④
36
口口口口 |--①-|
口①①口 |----|
口口口口
口口口口
37
口口口口 |--①-|
②口口① |②---|
④口口③ |③-④-|
口口口口
38
口口口口 |--①-|
口口口口 |----|
口口口口
口①①口
39
①口口② |--①-|
口口口口 |②---|
口口口口 |③-④-|
③口口④
40
口口口口 |--①-|
口①①口 |----|
口口口口
口口口口
41
口口口口 |--①-|
②口口① |②---|
④口口③ |③-④-|
口口口口
42
口口口口 |--①-|
口口口口 |----|
口口口口
口①①口
43
①口口口 |①---|
口②③口 |②-③-|
口④口口 |--④-|
口口口口
44
口②②口 |①---|
口口口口 |②---|
口口①口
口口口口
45
口口口口 |①---|
①③口① |--②-|
口口口口 |--③-|
口②②口
46
口口口口 |①---|
口口①口 |②---|
②口口②
口口口口
47
①口口② |①-②-|
③口口④ |③-④-|
口⑤口口 |--⑤-|
口口口口
48
口②②口 |①---|
口口口口 |②---|
口口①口
口口口口
49
口口口口 |----|
口口①口 |①-②-|
口②口口 |③---|
口口③口
50
口口口口 |①---|
①口口① |②---|
口口口口
②口口②
51
⑤①②口 |①-②-|
口口口口 |③-④-|
③口口④ |--⑤-|
口口口口
52
口口口① |①---|
口②②口 |②---|
口口口口
口口口口
53
口口口口 |①---|
②口口③ |②-③-|
④口口口 |--④-|
口①①口
54
口口口口 |①---|
口口口口 |②---|
口口口①
口②②口
55
口④口口 |①---|
口①①口 |②-③-|
口②③口 |--④-|
口口口口
56
②口①② |①---|
口口口口 |②---|
口口口口
口口口口
57
口口口口 |----|
口口①口 |①-②-|
口②口口 |③---|
口口③口
58
口口口口 |①---|
①口口② |②---|
①口口②
口口口口
59
②口口② |①---|
口①①口 |--②-|
口口口口 |----|
口口口口
60
口口口口 |①---|
②口口口 |--②-|
口①①口
口口口口
61
口口口口 |①-②-|
口口口口 |----|
口口口① |----|
②口口口
62
口口口口 |----|
口口口口 |----|
口口口口
口口口口
63
口口口口 |①---|
①口口① |--②-|
口口口口 |----|
口②②口
64
②口口② |①---|
口①①口 |--②-|
口口口口
口口口口
65
口口口口 |--①-|
口口口口 |----|
口口口口 |----|
①口口①
66
口口口口 |----|
口口口口 |----|
口口口口
口口口口
67
口口口口 |①---|
口②③口 |②-③-|
口④口口 |--④-|
①口口①
68
口口口口 |①---|
口口口口 |②---|
口口①口
口②②口
69
①口口① |①---|
口口口口 |--②-|
②口口② |--③-|
③口口③
70
口①①口 |----|
口口口口 |①---|
口口口口
口口口口
71
口口口口 |①---|
口口口口 |--②-|
口②②口 |----|
口①①口
72
①口口① |①---|
口口口口 |----|
口口口口
口口口口
73
口口口口 |----|
口口口口 |①---|
②口口② |--②-|
①口口①
74
口口口口 |----|
①口口① |①---|
口口口口
口口口口
75
①②②① |--①-|
口口口口 |----|
口口口口 |②---|
口口口口
76
口口口口 |--①-|
口①①口 |----|
口口口口
口口口口
77
口口口口 |①---|
口口口口 |----|
口①①口 |----|
口口口口
78
口口口口 |----|
口口口口 |----|
口口口口
口口口口
79
口③口口 |①---|
口口口口 |----②-|
口口②口 |----|
①口口口 |③---|
80
①口口① |----|
口口口口 |①---|
口口口口 |----|
口②③口 |②---③-|
81
③①②③ |①---②-|
口口口口 |----③-|
④口口④ |----|
口口口口 |④---|
82
口③②口 |----|
口口口口 |①---|
口口口口 |----|
口①①口 |②---③-|
83
口口口口 |①---②-|
口④④口 |----③-|
口②①口 |----|
③口口③ |④---|
84
①口口① |----|
口口口口 |①---|
口口口口 |----|
口口口口 |----|
85
口口口口 |①---|
口①①口 |----②-|
口②②口 |----|
③口口③ |③---|
86
口口口口 |----|
①②②① |①---|
①口口① |----|
口口口口 |②---|
87
口③口口 |①---|
口口口口 |----②-|
口口②口 |----|
①口口口 |③---|
88
①口口① |----|
口口口口 |①---|
口口口口 |----|
口②③口 |②---③-|
89
口①①口 |①---|
②口口② |----②-|
③口口③ |----|
口口口口 |③---|
90
口口口口 |----|
口口口口 |①---|
口口口口 |----|
口①①口 |----|
91
口口口口 |①---|
口③③口 |----②-|
口①①口 |----|
②口口② |③---|
92
①口口① |----|
口口口口 |①---|
口口口口 |----|
口口口口 |----|
93
口口口口 |①---|
口①①口 |----②-|
口②②口 |----|
③口口③ |③---|
94
口口口口 |----|
①口口① |①---|
①口口① |----|
口口口口 |----|
95
①口口② |①---|
口①②口 |--②-|
口口口口 |----|
口③③口 |③---|
96
口口口口 |----|
口口口口 |----|
口口口口 |----|
口口口口 |----|
97
口口口口 |①---|
③口口③ |----|
口②②口 |②---|
口①①口 |--③-|
98
①口口① |----|
口口口口 |①---|
口口口口 |----|
口口口口 |----|
99
口口口口 |----|
口口口口 |----|
口口口口 |----|
口口口口 |----|
100
①口口口 |①---|
口②③口 |②-③-|
口④口口 |--④-|
口口口口
101
口②②口 |①---|
口口口口 |②---|
口口①口
口口口口
102
口口口口 |①---|
①④口口 |②-③-|
口口口口 |--④-|
口②③口
103
口口口口 |①---|
口口①口 |②---|
②口口②
口口口口
104
①口口② |①-②-|
③口口④ |③-④-|
口⑤口口 |--⑤-|
口口口口
105
口②②口 |①---|
口口口口 |②---|
口口①口
口口口口
106
口口口口 |----|
口口①口 |①-②-|
口②口口 |③---|
口口③口
107
口口口口 |①---|
①口口① |②---|
口口口口
②口口②
108
⑤①②口 |①-②-|
口口口口 |③-④-|
③口口④ |--⑤-|
口口口口
109
口口口① |①---|
口②②口 |②---|
口口口口
口口口口
110
口口口口 |①---|
②口口② |--②-|
③口口口 |--③-|
口①①口
111
口口口口 |①---|
口口口口 |②---|
口口口①
口②②口
112
口⑤口口 |①-②-|
口①②口 |③-④-|
口口口口 |--⑤-|
③口口④
113
②口①② |①---|
口口口口 |②---|
口口口口
口口口口
114
口口口口 |----|
口口①口 |①-②-|
口②口口 |③---|
口口③口
115
口口口口 |①---|
①口口② |②---|
①口口②
口口口口
116
口③②口 |①---|
口口口口 |--②-|
口口口口 |③---|
①口口口
117
口口口口 |----|
口口口口 |----|
口口口口
口口口口
118
口口口口 |--①-|
口②①口 |②---|
口口口口 |③-④-|
口④③口
119
口口口口 |--①-|
口口口口 |----|
①口口①
口口口口
120
口③④口 |--①-|
口口口口 |②---|
口①②口 |③-④-|
口口口口
121
口口口口 |--①-|
①口口① |----|
口口口口
口口口口
122
口口口口 |--①-|
口②①口 |②---|
口口口口 |③-④-|
口④③口
123
口口口口 |--①-|
口口口口 |----|
①口口①
口口口口
124
口口口口 |①---|
口②②口 |--②-|
口①①口 |----|
口口口口
125
口口口口 |①---|
①口口② |②---|
口口口口
①口口②
126
口②②口 |①---|
口口口口 |--②-|
口口口口 |----|
口①①口
127
①口口② |①---|
口口口口 |②---|
①口口②
口口口口
128
口口口口 |①---|
口①①口 |--②-|
口口口口 |----|
口②②口
129
口口口口 |①---|
①口口② |②---|
①口口②
口口口口
130
口②②口 |①---|
口口口口 |--②-|
口口口口 |----|
①口口①
131
口口口口 |①---|
口①②口 |②---|
口①②口
口口口口
132
①口口② |①---|
口口口口 |--②-|
口③口口 |--③-|
口口口口
133
口②②口 |①---|
口口口口 |②---|
口口①口
口口口口
134
口口口口 |①---|
①③口口 |--②-|
口口口口 |--③-|
口②②口
135
口口口口 |①---|
口口①口 |②---|
②口口②
口口口口
136
①口口② |①-②-|
③口口④ |③-④-|
口⑤口口 |--⑤-|
口口口口
137
口②②口 |①---|
口口口口 |②---|
口口①口
口口口口
138
口口口口 |----|
口口①口 |①-②-|
口②口口 |③---|
口口③口
139
口口口口 |①---|
①口口① |②---|
口口口口
②口口②
140
④①①口 |①---|
口口口口 |②-③-|
口②③口 |--④-|
口口口口
141
口口口① |①---|
口②②口 |②---|
口口口口
口口口口
142
口口口口 |①---|
②口口③ |②-③-|
④口口口 |--④-|
口①①口
143
口口口口 |①---|
口口口口 |②---|
口口口①
口②②口
144
口⑤口口 |①-②-|
口①②口 |③-④-|
口口口口 |--⑤-|
③口口④
145
②口①② |①---|
口口口口 |②---|
口口口口
口口口口
146
口口口口 |----|
口口①口 |①-②-|
口②口口 |③---|
口口③口
147
口口口口 |①---|
①口口② |②---|
①口口②
口口口口
148
口口口口 |----|
口①口口 |①-②-|
口口②口 |③---|
口③口口
149
①口口② |①---|
口口口口 |②---|
①口口②
口口口口


不確定度: 0

最終更新:2013年10月01日 22:00