Synergy For Angels
TAG×U1-ASAMi

BASIC

Level: 3
BPM: 160
Notes: 220

1
口口口口 |----|
口口口口 |----|
口口口口 |----|
口口口口 |----|
2
口口口口 |①---|
口口口口 |②---|
②②④④ |③---|
口①③口 |④---|
3
②②③③ |①---|
口①④口 |②---|
口口口口 |③---|
口口口口 |④---|
4
口口口口 |①---|
口口口口 |②---|
②②④④ |③---|
①口口③ |④---|
5
②②③③ |①---|
①口口口 |②---|
口口口口 |③---|
口口口口 |----|
6
口口口口 |①---|
口口口口 |②---|
②②④④ |③---|
口①③口 |④---|
7
②②③③ |①---|
口①④口 |②---|
口口口口 |③---|
口口口口 |④---|
8
口口口口 |①---|
口口口口 |----|
口①①口 |②---|
口②口口 |----|
9
口口口口 |①---|
口口口口 |----|
口口口口 |----|
口口①口 |----|
10
口口口口 |①---|
口①①口 |----|
口口口口 |----|
口口口口 |----|
11
④④口口 |①---|
③口口口 |②---|
②口口口 |③---|
①口口口 |④---|
12
口口④④ |①---|
口口口③ |②---|
口口口② |③---|
口口口① |④---|
13
④④口口 |①---|
口③口口 |②---|
口②口口 |③---|
口①口口 |④---|
14
口口④④ |①---|
口口③口 |②---|
口口②口 |③---|
口口①口 |④---|
15
口①口口 |①---|
口②口口 |②---|
口③口口 |③---|
④④口口 |④---|
16
口口①口 |①---|
口口②口 |②---|
口口③口 |③---|
口口④④ |④---|
17
①口口口 |①---|
②口口口 |②---|
③口口口 |③---|
④④口口 |④---|
18
口口口① |①---|
口口口② |②---|
口口口③ |③---|
口口④④ |④---|
19
口口口口 |①---|
口口口口 |----|
口①①口 |----|
口口口口 |----|
20
口口②② |①---|
①①口口 |----|
口口口口 |②---|
口口口口 |----|
21
口①口口 |①---|
口口②口 |②---|
口③口口 |③---|
口口④口 |④---|
22
口口口口 |①---|
口口口口 |----|
口口②② |②---|
①①口口 |----|
23
口口口口 |----|
口口口口 |----|
口口口口 |----|
口口口口 |----|
24
②②口口 |①---|
口口①① |----|
口口口口 |②---|
口口口口 |----|
25
口口①口 |①---|
口②口口 |②---|
口口③口 |③---|
口④口口 |④---|
26
口口口口 |①---|
口口口口 |----|
②②口口 |②---|
口口①① |----|
27
②②口口 |①---|
口口①① |----|
口口口口 |②---|
口口口口 |----|
28
口口口口 |①---|
口口口口 |②---|
④④口③ |③---|
②②口① |④---|
29
④④口③ |①---|
②②口① |②---|
口口口口 |③---|
口口口口 |④---|
30
口口口口 |①---|
口①①口 |----|
口②②口 |②---|
口口口口 |----|
31
口口口口 |----|
口口口口 |----|
口口口口 |----|
口口口口 |----|
32
口口口口 |①---|
口口口口 |②---|
③口④④ |③---|
①口②② |④---|
33
③口④④ |①---|
①口②② |②---|
口口口口 |③---|
口口口口 |④---|
34
口口口口 |①---|
口①①口 |----|
口②②口 |②---|
口口口口 |----|
35
口口口口 |①---|
②口口② |----|
口口口口 |②---|
①口口① |----|
36
①②③口 |①---|
口口口口 |②---|
口口口口 |③---|
口口口口 |----|
37
口口口口 |----|
口①②口 |----|
口口口口 |①---|
口口口口 |②---|
38
口口口口 |①---|
口口口口 |②---|
口③②① |③---|
口口口口 |----|
39
口口口口 |----|
口口口口 |----|
口口口口 |----|
口口口口 |----|
40
口口口口 |①---|
口口口口 |②---|
口口口口 |③---|
①②③口 |----|
41
口口口口 |----|
口口口口 |----|
口①②口 |①---|
口口口口 |②---|
42
口口口口 |①---|
口③②① |②---|
口口口口 |③---|
口口口口 |----|
43
口口口口 |----|
口口口口 |----|
口口口口 |----|
口口口口 |----|
44
①②口口 |①---|
③④口口 |②---|
口口口口 |③---|
口口口口 |④---|
45
口口口口 |①---|
口口口口 |②---|
①②口口 |③---|
③④口口 |④---|
46
口口②① |①---|
口口④③ |②---|
口口口口 |③---|
口口口口 |④---|
47
口口口口 |①---|
口口口口 |②---|
口口②① |③---|
口口④③ |④---|
48
①②口口 |①---|
③④口口 |②---|
口口口口 |③---|
口口口口 |④---|
49
口口口口 |①---|
口口口口 |②---|
①②口口 |③---|
③④口口 |④---|
50
口口②① |①---|
口口④③ |②---|
口口口口 |③---|
口口口口 |④---|
51
口口口口 |①---|
口口口口 |②---|
口口②① |③---|
口口④③ |④---|
52
口口口口 |①---|
口口口口 |②---|
③口口④ |③---|
①口口② |④---|
53
口③③口 |①---|
①口口② |②---|
口口口口 |③---|
口口口口 |----|
54
①口口② |①---|
③口口④ |②---|
口口口口 |③---|
口口口口 |④---|
55
口口口口 |①---|
口口口口 |②---|
①口口② |③---|
口③④口 |④---|
56
口口口口 |①---|
口②②口 |----|
①口口① |②---|
口口口口 |----|
57
口①①口 |①---|
口口口口 |----|
口口口口 |----|
口口口口 |----|
58
①口口① |①---|
口口口口 |----|
口口口口 |----|
口口口口 |----|
59
口口②② |①---|
①①口口 |----|
口口口口 |②---|
口口口口 |----|
60
口①口口 |①---|
口口②口 |②---|
口③口口 |③---|
口口④口 |④---|
61
口口口口 |①---|
口口口口 |----|
口口②② |②---|
①①口口 |----|
62
口口口口 |----|
口口口口 |----|
口口口口 |----|
口口口口 |----|
63
②②口口 |①---|
口口①① |----|
口口口口 |②---|
口口口口 |----|
64
口口①口 |①---|
口②口口 |②---|
口口③口 |③---|
口④口口 |④---|
65
口口口口 |①---|
口口口口 |----|
②②口口 |②---|
口口①① |----|
66
②②口口 |①---|
口口①① |----|
口口口口 |②---|
口口口口 |----|
67
③④口口 |①---|
②口口口 |②---|
①口口口 |③---|
口口口口 |④---|
68
口口①② |①---|
口口口③ |②---|
口口口④ |③---|
口口口口 |④---|
69
口①①口 |①---|
口②②口 |②---|
口③③口 |③---|
口④④口 |④---|
70
①口口① |①---|
②口口② |②---|
③口口③ |③---|
④口口④ |④---|
71
口口口口 |①---|
口③④口 |②---|
口口口口 |③---|
口①②口 |④---|
72
①口口② |①---|
③口口④ |②---|
口口口口 |③---|
口口口口 |④---|
73
口④④口 |①---|
口③③口 |②---|
口②②口 |③---|
口①①口 |④---|
74
④口口④ |①---|
③口口③ |②---|
②口口② |③---|
①口口① |④---|
75
口①①口 |①---|
口①①口 |----|
口口口口 |----|
口口口口 |----|


不確定度: 0

最終更新:2013年10月01日 21:27