お米の美味しい炊き方、 そしてお米を食べることによるその効果。
大日本鉄倶楽部【あさき&96】

BASIC

Level: 4
BPM: 190
Notes: 324

1
口口口口 |----|
口口口口 |-------①|
口①①口 |----|
口口口口 |----|
2
口口口口 |①---|
②口口口 |----|
①口口口 |②---|
口口口口 |----|
3
口口口口 |①---|
口口口② |----|
口口口① |②---|
口口口口 |----|
4
口口口口 |①---|
口②口口 |----|
口①口口 |②---|
口口口口 |----|
5
口口口口 |①---|
口口②口 |----|
口口①口 |②---|
口口口口 |----|
6
口口口口 |①---|
②口口口 |----|
①口口口 |②---|
口口口口 |----|
7
口口口口 |①---|
口口口② |----|
口口口① |②---|
口口口口 |----|
8
口口口口 |①---|
口②口口 |----|
口①口口 |②---|
口口口口 |----|
9
口口口口 |①---|
口口口口 |----|
口②②口 |②---|
口①①口 |----|
10
口口口口 |①---|
口①①口 |----|
口口口口 |----|
口口口口 |----|
11
口口口口 |①---|
①②④③ |②---|
口口口口 |③---|
口口口口 |④---|
12
口口口口 |①---|
口口口口 |②---|
①②④③ |③---|
口口口口 |④---|
13
口口口口 |①---|
①②④③ |②---|
口口口口 |③---|
口口口口 |④---|
14
口口口口 |①---|
口口口口 |②---|
口口口口 |③---|
①②③④ |④---|
15
口口口口 |①---|
①②④③ |②---|
口口口口 |③---|
口口口口 |④---|
16
口口口口 |①---|
口口口口 |②---|
①②④③ |③---|
口口口口 |④---|
17
口口口口 |①---|
①②④③ |②---|
口口口口 |③---|
口口口口 |④---|
18
口口口口 |①---|
口口口口 |②---|
口口口口 |③---|
①②③④ |④---|
19
口口口口 |①---|
口口口口 |----|
口①①口 |----|
口口口口 |----|
20
口口口口 |----|
口口口口 |----|
口口口口 |----|
口口口口 |----|
21
口口口口 |①---|
口①①口 |----|
口口口口 |----|
口口口口 |----|
22
口口口口 |----|
口口口口 |----|
口口口口 |----|
口口口口 |----|
23
口口口口 |①---|
②③口口 |----|
口①①口 |②---|
口口口口 |③---|
24
口口口口 |①---|
口口③② |----|
口①①口 |②---|
口口口口 |③---|
25
口口口口 |①---|
②③口口 |----|
口①①口 |②---|
口口口口 |③---|
26
口口口口 |①---|
口口口口 |----|
口①①口 |②---|
口②②口 |----|
27
口口口口 |①---|
②③口口 |----|
口①①口 |②---|
口口口口 |③---|
28
口口口口 |①---|
口口③② |----|
口①①口 |②---|
口口口口 |③---|
29
口口口口 |①---|
②③口口 |----|
口①①口 |②---|
口口口口 |③---|
30
口口口口 |①---|
口口口口 |----|
口①①口 |②---|
口②②口 |----|
31
口口③口 |①---|
口②口口 |----|
口①①口 |②---|
口口口口 |③---|
32
口③口口 |①---|
口口②口 |----|
口①①口 |②---|
口口口口 |③---|
33
口口③口 |①---|
口②口口 |----|
口①①口 |②---|
口口口口 |③---|
34
口口口口 |①---|
口口口口 |----|
口①①口 |②---|
口②②口 |----|
35
口口③口 |①---|
口②口口 |----|
口①①口 |②---|
口口口口 |③---|
36
口③口口 |①---|
口口②口 |----|
口①①口 |②---|
口口口口 |③---|
37
口口口口 |①---|
口口口口 |----|
口①①口 |----|
口口口口 |----|
38
口口口口 |①---|
口①①口 |----|
口口口口 |----|
口口口口 |----|
39
口口口口 |①---|
口①①口 |----|
口①①口 |----|
口口口口 |----|
40
口口口口 |①---|
口口①口 |②---|
口口②口 |③---|
口④③口 |④---|
41
口口口口 |①---|
口口口口 |----|
口①口口 |----|
口口口口 |----|
42
口口口口 |----|
口口口口 |----|
口口口口 |----|
口口口口 |----|
43
口口口口 |①---|
口①①口 |----|
口口口口 |----|
口口口口 |----|
44
口口口口 |①---|
口②②口 |----|
口①①口 |②---|
口口口口 |----|
45
口口①口 |①---|
口口口口 |----|
口口口口 |----|
口口口口 |----|
46
口口口口 |①---|
口①①口 |----|
口①①口 |----|
口口口口 |----|
47
口口口口 |----|
口口口口 |----|
口口口口 |----|
口口口口 |----|
48
口口③口 |①---|
口②②口 |②---|
口①①口 |③---|
口口口口 |----|
49
口口③口 |①---|
口②②口 |②---|
口①①口 |③---|
口口口口 |----|
50
口口口口 |①---|
口口口口 |②---|
④③②① |③---|
口口口口 |④---|
51
口口口口 |①---|
口口口口 |②---|
口口口口 |③---|
①②③④ |④---|
52
口口③口 |①---|
口②②口 |②---|
口①①口 |③---|
口口口口 |----|
53
口口③口 |①---|
口②②口 |②---|
口①①口 |③---|
口口口口 |----|
54
口口口口 |①---|
①口口① |----|
口口口口 |----|
口口口口 |----|
55
口口口口 |①---|
口口口口 |----|
①口口② |②---|
①口口② |----|
56
口口③口 |①---|
口②②口 |②---|
口①①口 |③---|
口口口口 |----|
57
口口③口 |①---|
口②②口 |②---|
口①①口 |③---|
口口口口 |----|
58
口口口口 |①---|
口口口口 |②---|
④③②① |③---|
口口口口 |④---|
59
口口口口 |①---|
口口口口 |②---|
口口口口 |③---|
①②③④ |④---|
60
口口③口 |①---|
口②②口 |②---|
口①①口 |③---|
口口口口 |----|
61
口口③口 |①---|
口②②口 |②---|
口①①口 |③---|
口口口口 |----|
62
口口口口 |①---|
①口口① |----|
口口口口 |----|
口口口口 |----|
63
口①①口 |①---|
口②②口 |②---|
口③③口 |③---|
口④④口 |④---|
64
④③②① |①---|
口口口口 |②---|
口口口口 |③---|
口口口口 |④---|
65
口口口口 |①---|
①②③④ |②---|
口口口口 |③---|
口口口口 |④---|
66
口口口口 |①---|
口口口口 |②---|
④③②① |③---|
口口口口 |④---|
67
口口口口 |①---|
口口口口 |②---|
口口口口 |③---|
①②③④ |④---|
68
口①②口 |①---|
口③④口 |②---|
口口口口 |③---|
口口口口 |④---|
69
口口口口 |①---|
口口口口 |②---|
口①②口 |③---|
口③④口 |④---|
70
①口口① |①---|
②口口② |②---|
③口口③ |③---|
④口口④ |④---|
71
口③③口 |①---|
口②②口 |②---|
口①①口 |③---|
口口口口 |----|
72
口口③口 |①---|
口②②口 |②---|
口①①口 |③---|
口口口口 |----|
73
口口③口 |①---|
口②②口 |②---|
口①①口 |③---|
口口口口 |----|
74
口口口口 |①---|
①口口① |----|
②口口② |②---|
口口口口 |----|
75
口口口口 |①---|
口口口口 |----|
口口口口 |②---|
①②②① |----|
76
口口③口 |①---|
口②②口 |②---|
口①①口 |③---|
口口口口 |----|
77
口口③口 |①---|
口②②口 |②---|
口①①口 |③---|
口口口口 |----|
78
口口口口 |①---|
口口口口 |----|
口口口口 |----|
①口口① |----|
79
①口口① |①---|
口口口口 |----|
口口口口 |----|
口口口口 |----|
80
口口③口 |①---|
口②②口 |②---|
口①①口 |③---|
口口口口 |----|
81
口口③口 |①---|
口②②口 |②---|
口①①口 |③---|
口口口口 |----|
82
口③口① |①---|
④口②口 |②---|
口口口口 |③---|
口口口口 |④---|
83
口口口口 |①---|
口口口口 |②---|
口③口① |③---|
④口②口 |④---|
84
口口口③ |①---|
口口②② |②---|
口口①① |③---|
口口口口 |----|
85
口③口口 |①---|
②②口口 |②---|
①①口口 |③---|
口口口口 |----|
86
口口口口 |①---|
口口口口 |----|
口①①口 |----|
口口口口 |----|
87
口②②口 |①---|
口①①口 |----|
口口口口 |②---|
口口口口 |----|
88
口口③口 |①---|
口②②口 |--②-|
口①①口 |----|
口口口口 |③---|
89
口口口口 |----|
口口口口 |----|
口口口口 |----|
口口口口 |----|
90
口口口口 |----|
口口口口 |----|
口口口口 |----|
口口口口 |----|
91
口口口口 |----|
口口口口 |①---|
口①口口 |----|
口①口口 |----|
92
口口口口 |----|
口口①口 |①---|
口口①口 |----|
口口①口 |----|


不確定度: 0

最終更新:2013年10月01日 21:23