お米の美味しい炊き方、 そしてお米を食べることによるその効果。
大日本鉄倶楽部【あさき&96】

ADVANCED

Level: 7
BPM: 190
Notes: 535

1
口口口口 |----|
口①①口 |-------①|
口①①口 |----|
口口口口 |----|
2
口口③③ |①-②-|
口④⑤口 |③---|
②⑥⑦口 |④-⑤-|
口口口① |⑥-⑦-|
3
③③口口 |①-②-|
口⑤④口 |③---|
口⑦⑥② |④-⑤-|
①口口口 |⑥-⑦-|
4
口口③③ |①-②-|
口④⑤口 |③---|
②⑥⑦口 |④-⑤-|
口口口① |⑥-⑦-|
5
①口口② |①-②-|
③口口④ |③-④-|
口口口口 |⑤---|
口⑤⑥口 |⑥---|
6
口口②② |①---|
口③④口 |②---|
口⑤⑥口 |③-④-|
口口口① |⑤-⑥-|
7
③③口口 |①-②-|
口⑤④口 |③---|
口⑦⑥② |④-⑤-|
①口口口 |⑥-⑦-|
8
口口③③ |①-②-|
口④⑤口 |③---|
②⑥⑦口 |④-⑤-|
口口口① |⑥-⑦-|
9
②口口⑤ |①-②-|
口④口口 |--③-|
①口口③ |④-⑤-|
口⑥口口 |--⑥-|
10
口④②口 |①-②-|
口⑤⑤口 |③-④-|
口③①口 |--⑤-|
口口口口 |----|
11
③③口口 |①-②-|
口④⑤口 |③---|
口⑥⑦② |④-⑤-|
口口口① |⑥-⑦-|
12
口口③③ |①-②-|
口⑤④口 |③---|
②⑦⑥口 |④-⑤-|
①口口口 |⑥-⑦-|
13
③③口口 |①-②-|
口④⑤口 |③---|
口⑥⑦② |④-⑤-|
口口口① |⑥-⑦-|
14
③口口④ |①-②-|
⑤口口② |③-④-|
①口口口 |⑤---|
⑥口口口 |⑥---|
15
③③口口 |①-②-|
口④⑤口 |③---|
口⑥⑦② |④-⑤-|
口口口① |⑥-⑦-|
16
口口③③ |①-②-|
口⑤④口 |③---|
②⑦⑥口 |④-⑤-|
①口口口 |⑥-⑦-|
17
③③口口 |①-②-|
口④⑤口 |③---|
口⑥⑦② |④-⑤-|
口口口① |⑥-⑦-|
18
⑤口⑥④ |①-②-|
口⑥⑥口 |③-④-|
③⑥⑥② |⑤---|
①口口口 |⑥---|
19
口口口口 |----|
口口口口 |----|
口口口口 |----|
口口口口 |----|
20
口口口口 |----|
口口口口 |----|
口口口口 |----|
口口口口 |----|
21
口口①口 |①---|
口①①口 |----|
口①①口 |----|
口口口口 |----|
22
口口口口 |----|
口口口口 |----|
口口口口 |----|
口口口口 |----|
23
口口①② |①---|
口口③③ |②---|
口口①② |③---|
⑤⑤④④ |④-⑤-|
24
③②口口 |--①-|
③②口口 |----|
口口①① |②---|
口口口口 |③---|
25
口⑧⑦口 |①-②-|
口⑥⑤口 |③-④-|
口④③口 |⑤-⑥-|
口②①口 |⑦-⑧-|
26
口口口口 |--①-|
④口口③ |②-③-|
②口口① |④---|
口口口口 |----|
27
口②①口 |①-②-|
口④③口 |③-④-|
口⑥⑤口 |⑤-⑥-|
口⑧⑦口 |⑦-⑧-|
28
②口口① |--①-|
④口口③ |②-③-|
⑥口口⑤ |④-⑤-|
口口口⑦ |⑥-⑦-|
29
口口口⑧ |①-②-|
口⑦⑥⑧ |③-④-|
口⑤④口 |⑤-⑥-|
①③②口 |⑦-⑧-|
30
①口口口 |--①-|
①口口口 |--②-|
③口口② |--③-|
③口口② |----|
31
口⑥①② |①---|
⑥④③口 |②---|
口口①② |③-④-|
口口⑤口 |⑤-⑥-|
32
口口口⑦ |--①-|
⑥口口⑤ |②-③-|
④口口③ |④-⑤-|
②口口① |⑥-⑦-|
33
①③②口 |①-②-|
口⑤④口 |③-④-|
口⑦⑥口 |⑤-⑥-|
口口⑧口 |⑦-⑧-|
34
③④④口 |--①-|
③口口口 |--②-|
口口口② |③---|
口①口② |④---|
35
口⑧⑦口 |①-②-|
口⑥⑤口 |③-④-|
口④③口 |⑤-⑥-|
口②①口 |⑦-⑧-|
36
④口口③ |--①-|
口④③① |②---|
②③④口 |③---|
③口口④ |④---|
37
口口口口 |①---|
口口口口 |----|
口口口口 |----|
口①①口 |----|
38
口①①口 |--①-|
②口口② |--②-|
③口口③ |③---|
口④④口 |④---|
39
口口②③ |①---|
口①①口 |----|
口①①口 |②---|
口口口口 |③---|
40
③②口口 |①---|
④口口① |②---|
口口口口 |③---|
口口口口 |④---|
41
口口口口 |----|
口口口口 |①---|
口口口口 |----|
口①①口 |----|
42
口口口口 |----|
口口③口 |----|
口②口口 |--①-|
口口①口 |②-③-|
43
口①口口 |①---|
口口口口 |----|
口口口口 |----|
口口口口 |----|
44
口口口口 |①---|
口口口口 |----|
②口口① |②---|
②口口① |----|
45
口口口口 |①---|
口③②口 |----|
口②③口 |----|
口①①口 |②-③-|
46
口口口口 |----|
口口口口 |----|
口口口口 |----|
口口口口 |----|
47
口口口口 |----|
口口口口 |----|
口口口口 |----|
口口口口 |----|
48
口口口口 |①---|
口口口口 |②---|
口口②②
口口①①

口口口口
口口口③
口口口口 |③---|
口口④口 |--④-|
49
⑤口口⑤ |--①-|
口口④口 |②-③-|
口③②口 |④---|
口①口口 |--⑤-|
50
口⑦口口 |--①-|
①口口② |②-③-|
口③④口 |④-⑤-|
⑤口口⑥ |⑥-⑦-|
51
口口①口 |①-②-|
口⑥口③ |③-④-|
②口⑤口 |⑤---|
口④口⑦ |⑥-⑦-|
52
口口口口 |--①-|
口口口④ |②-③-|
口口③② |④---|
口⑤①口 |--⑤-|
53
口⑤⑤口 |--①-|
口④口口 |②-③-|
③②口口 |④---|
①⑥⑥口 |⑤-⑥-|
54
口口口口 |----|
口①②口 |----|
口③口口 |--①-|
口口口口 |②-③-|
55
口③③口 |①---|
②口口① |--②-|
②口口① |----|
口口口口 |③---|
56
口口口口 |①---|
口口口口 |②---|
口口②②
口口①①

口口口口
口口口③
口口口口 |③---|
口口④口 |--④-|
57
⑤口口⑤ |--①-|
口口④口 |②-③-|
口③②口 |④---|
口①口口 |--⑤-|
58
口⑦口口 |--①-|
①口口② |②-③-|
口③④口 |④-⑤-|
⑤口口⑥ |⑥-⑦-|
59
口口①口 |①---|
③口②④ |②-③-|
③口口④ |--④-|
口口⑤口 |--⑤-|
60
口口口口 |--①-|
口口④口 |②-③-|
口③②口 |④---|
口①⑤口 |--⑤-|
61
口⑤⑤口 |--①-|
口口④口 |②-③-|
口③②口 |④---|
⑥①口⑥ |⑤-⑥-|
62
口口口口 |----|
②口③① |----|
②口③① |--①-|
口口口口 |②-③-|
63
口口②② |①---|
口①口口 |②---|
口①口口 |③---|
④④③③ |④---|
64
①①口口 |①---|
口口②口 |----|
口③口口 |----|
口口口口 |②-③-|
65
口口口口 |----|
口口口口 |----|
口口口口 |----|
口口口口 |----|
66
口⑧⑦口 |①-②-|
口⑥⑤口 |③-④-|
口④③口 |⑤-⑥-|
口②①口 |⑦-⑧-|
67
口口口口 |①---|
口口口① |--②-|
②口口① |③-④-|
④⑥⑤③ |⑤-⑥-|
68
口口③③ |①---|
②口口① |--②-|
②口口① |----|
口口口口 |③---|
69
③③口口 |--①-|
口口口口 |----|
口口口口 |②---|
①①②② |③---|
70
口口③① |①-②-|
⑦⑤口口 |③-④-|
口口④② |⑤-⑥-|
⑧⑥口口 |⑦-⑧-|
71
⑤⑤口口 |①-②-|
口口④② |③-④-|
口口口口 |⑤---|
口口③① |----|
72
口口口口 |①---|
口②②口 |②---|
口①①口
口口口口

口口③口
口口口口
口口④口 |③---|
口口口口 |--④-|
73
⑤口④⑤ |--①-|
口③②口 |②-③-|
口①口口 |④---|
口口口口 |--⑤-|
74
口①口口 |--①-|
口③②口 |②-③-|
口⑤④口 |④-⑤-|
口⑦⑥口 |⑥-⑦-|
75
口口口口 |①---|
①口口① |----|
口口口口 |----|
口②②口 |--②-|
76
②④④② |--①-|
③口口③ |②-③-|
①口口① |④---|
口⑤⑤口 |--⑤-|
77
②④④② |--①-|
③⑤⑥③ |②-③-|
①⑥⑤① |④---|
口口口口 |⑤-⑥-|
78
口口口口 |----|
口口口口 |----|
口口口口 |--①-|
①口口① |----|
79
①口口① |①---|
口口口口 |----|
口口口口 |②---|
口②②口 |----|
80
口口口口 |①---|
口口②② |②---|
口口①①
口口口口

口口口③
口口口口
口口④口 |③---|
口口口口 |--④-|
81
口口④⑤ |--①-|
口③②⑤ |②-③-|
口①口口 |④---|
口口口口 |--⑤-|
82
②口口口 |----|
口④口口 |①---|
口口⑤口 |②-③-|
①①口③ |④-⑤-|
83
口⑤⑤④ |①-②-|
口口②口 |③-④-|
口①⑦口 |⑤-⑥-|
③⑥⑥口 |--⑦-|
84
口口④口 |--①-|
口③②口 |②-③-|
口①⑤口 |④---|
口口口口 |--⑤-|
85
⑤口④⑤ |--①-|
口③②口 |②-③-|
口①口口 |④---|
⑥口口⑥ |⑤-⑥-|
86
口口口口 |----|
口②②口 |----|
口①①口 |--①-|
口口口口 |--②-|
87
②口①② |①---|
口口口口 |----|
口口口口 |②---|
口口口口 |----|
88
口口③口 |①---|
口②②口 |--②-|
口①①口 |----|
口口口口 |③---|
89
口口口口 |----|
口口口口 |----|
口口口口 |----|
口口口口 |----|
90
口口口口 |----|
口口口口 |----|
口口口口 |----|
口口口口 |----|
91
口口口口 |----|
口口口口 |①---|
口①口口 |----|
口①口口 |----|
92
口口口口 |----|
口口①口 |①---|
口口①口 |----|
口口①口 |----|


不確定度: 0

最終更新:2013年10月01日 21:22