GAIA
猫叉L.E.D.Master+

BASIC

Level: 4
BPM: 180
Notes: 341

1
口口口口 |----|
口口口口 |----|
口口口口 |----|
口口口口 |----|
2
①口口② |①---|
口口口口 |②---|
口口口口 |③---|
③口口④ |④---|
3
口口口口 |①---|
口①①口 |----|
口口口口 |----|
口口口口 |----|
4
口口口口 |----|
口口口口 |----|
口口口口 |----|
口口口口 |----|
5
口口口口 |①---|
口口口口 |----|
②①①② |----|
口口口口 |--②-|
6
口口口口 |----|
①口口① |--①-|
口口口口 |----|
口口口口 |----|
7
口①①口 |①---|
口口口口 |----|
口②②口 |----|
口口口口 |--②-|
8
口口口口 |----|
口口口口 |----|
口口口口 |----|
口口口口 |----|
9
口口口口 |①---|
②口口② |----|
口口口口 |----|
①口口① |--②-|
10
①口口① |----|
口口口口 |--①-|
口口口口 |----|
口口口口 |----|
11
口①①口 |①---|
口②口口 |②---|
口③口口 |③---|
口④口口 |④---|
12
口口④口 |①---|
口口③口 |②---|
口口②口 |③---|
口口①口 |④---|
13
①口口① |①---|
②口口口 |②---|
③口口口 |③---|
④口口口 |④---|
14
口口口④ |①---|
口口口③ |②---|
口口口② |③---|
口口口① |④---|
15
口①①口 |①---|
口②口口 |②---|
口③口口 |③---|
口④口口 |④---|
16
口口④口 |①---|
口口③口 |②---|
口口②口 |③---|
口口①口 |④---|
17
①口口① |①---|
②口口口 |②---|
③口口口 |③---|
④口口口 |④---|
18
口口口④ |①---|
口口口③ |②---|
口口口② |③---|
口口口① |④---|
19
①②口口 |①---|
③④口口 |②---|
口口口口 |③---|
口口口口 |④---|
20
口口②① |①---|
口口④③ |②---|
口口口口 |③---|
口口口口 |④---|
21
口口口口 |①---|
口口口口 |②---|
①②口口 |③---|
③④口口 |④---|
22
口口口口 |①---|
口口口口 |②---|
口口②① |③---|
口口④③ |④---|
23
口②②口 |①---|
①③口口 |②---|
口口口口 |----|
口口口口 |③---|
24
口口④② |①---|
口口③① |②---|
口口口口 |③---|
口口口口 |④---|
25
口口口口 |①---|
口口口口 |②---|
②④口口 |③---|
①③口口 |④---|
26
口口口口 |①---|
口口口口 |②---|
口口④② |③---|
口口③① |④---|
27
①①口② |①---|
口③④口 |②---|
口口口口 |③---|
口口口口 |④---|
28
口口口口 |①---|
口口口口 |②---|
①口口② |③---|
口③④口 |④---|
29
①①口口 |①---|
②口口口 |②---|
③口口口 |③---|
④口口口 |④---|
30
口口①① |①---|
口口口② |②---|
口口口③ |③---|
口口口④ |④---|
31
口②②口 |①---|
①口口口 |②---|
口口口口 |----|
口口口口 |----|
32
口口口口 |①---|
口口口口 |②---|
口①②口 |③---|
口③④口 |④---|
33
口口口口 |①---|
③口口④ |②---|
①口口② |③---|
口口口口 |④---|
34
口①②口 |①---|
口③④口 |②---|
口口口口 |③---|
口口口口 |④---|
35
①①口② |①---|
口③④口 |②---|
口口口口 |③---|
口口口口 |④---|
36
口口口口 |①---|
口口口口 |②---|
①③③② |③---|
口口口口 |----|
37
①①口口 |①---|
②口口口 |②---|
③口口口 |③---|
④口口口 |④---|
38
口口①① |①---|
口④④② |②---|
口口口口 |③---|
口③③口 |④---|
39
口①①口 |①---|
口口口口 |----|
口口口口 |----|
口口口口 |----|
40
口口口口 |①---|
口口口口 |②---|
口①②口 |③---|
③口口③ |----|
41
口①①口 |①---|
②口口③ |----|
口口口口 |②---|
口口口口 |③---|
42
口①②口 |①---|
口③④口 |②---|
口口口口 |③---|
口口口口 |④---|
43
口口口口 |①---|
口口口口 |--②-|
②口口② |----|
①口口① |----|
44
口①②口 |①---|
口口口口 |--②-|
口口口口 |----|
口口口口 |----|
45
口口口口 |①---|
口口口口 |--②-|
②口口② |----|
①口口① |----|
46
口①②口 |①---|
口口口口 |--②-|
口口口口 |----|
口口口口 |----|
47
口口口口 |①---|
口口口口 |--②-|
②口口② |----|
①口口① |----|
48
口①②口 |①---|
口口口口 |--②-|
口口口口 |----|
口口口口 |----|
49
口口口口 |①---|
口口口口 |--②-|
②口口② |----|
①口口① |----|
50
口①②口 |①---|
口口口口 |--②-|
口口口口 |----|
口口口口 |----|
51
口口口口 |①---|
口①②口 |--②-|
口①②口 |----|
口口口口 |----|
52
口口口口 |----|
口口口口 |----|
口口口口 |----|
口口口口 |----|
53
口口口口 |①---|
口①②口 |--②-|
口①②口 |----|
口口口口 |----|
54
口口口口 |----|
口口口口 |----|
口口口口 |----|
口口口口 |----|
55
口口口口 |①---|
①口口② |--②-|
①口口② |----|
口口口口 |----|
56
口口口口 |----|
口口口口 |----|
口口口口 |----|
口口口口 |----|
57
口口口口 |①---|
①口口② |--②-|
①口口② |----|
口口口口 |----|
58
口口口口 |----|
口口口口 |----|
口口口口 |----|
口口口口 |----|
59
④③②① |①---|
口口口① |②---|
口口口口 |③---|
口口口口 |④---|
60
口口口口 |①---|
口口口口 |②---|
口口口① |③---|
④③②① |④---|
61
口口口① |①---|
④③②① |②---|
口口口口 |③---|
口口口口 |④---|
62
口口口口 |①---|
口口口口 |②---|
④③②① |③---|
口口口① |④---|
63
①②③④ |①---|
①口口口 |②---|
口口口口 |③---|
口口口口 |④---|
64
口口口口 |①---|
口口口口 |②---|
①口口口 |③---|
①②③④ |④---|
65
①口口口 |①---|
①②③④ |②---|
口口口口 |③---|
口口口口 |④---|
66
口口口口 |①---|
口口口口 |②---|
①②③④ |③---|
①口口口 |④---|
67
②口口③ |①---|
口①①口 |②---|
④口口口 |③---|
口口口口 |④---|
68
口口口口 |①---|
口②②口 |--②-|
口口口口 |----|
口①①口 |----|
69
口口口口 |①---|
③口口② |②---|
口①①口 |③---|
口口口④ |④---|
70
口口口口 |①---|
口②②口 |--②-|
口口口口 |----|
口①①口 |----|
71
口口口口 |①---|
②口口③ |②---|
④①①口 |③---|
口口口口 |④---|
72
②口口② |①---|
口①①口 |--②-|
口口口口 |----|
口口口口 |----|
73
口①①口 |①---|
口②②口 |②---|
口③③口 |③---|
口④④口 |④---|
74
①口口① |①---|
②口口② |②---|
③口口③ |③---|
④口口④ |④---|
75
②口口③ |①---|
口①①口 |②---|
④口口口 |③---|
口口口口 |④---|
76
口口口口 |①---|
口②②口 |----|
口口口口 |②---|
口①①口 |----|
77
口口口口 |①---|
③口口② |②---|
口①①口 |③---|
口口口④ |④---|
78
口口口口 |①---|
口②②口 |----|
口口口口 |②---|
口①①口 |----|
79
②口口③ |①---|
口口口口 |②---|
④①①口 |③---|
口口口口 |④---|
80
口①①口 |①---|
口口口口 |----|
口②②口 |②---|
口口口口 |----|
81
口口口口 |①---|
口口口口 |②---|
③口口④ |③---|
①口口② |④---|
82
③口口④ |①---|
①口口② |②---|
口口口口 |③---|
口口口口 |④---|
83
口①①口 |①---|
口口口口 |--②-|
口②②口 |----|
口口口口 |----|
84
口口口口 |----|
口口口口 |----|
口口口口 |----|
口口口口 |----|
85
口①①口 |①---|
口口口口 |--②-|
口②②口 |----|
口口口口 |----|
86
口口口口 |----|
口口口口 |----|
口口口口 |----|
口口口口 |----|
87
口①①口 |①---|
口口口口 |--②-|
口②②口 |----|
口口口口 |----|
88
口口口口 |----|
口口口口 |----|
口口口口 |----|
口口口口 |----|
89
口①①口 |①---|
口口口口 |--②-|
口②②口 |----|
口口口口 |----|
90
①口口① |①---|
②口口② |②---|
③口口③ |③---|
④口口④ |④---|


不確定度: 0

最終更新:2013年10月01日 21:20