創世ノート
PON+wac

BASIC

Level: 3
BPM: 200
Notes: 221

1
口口口口 |----|
口口口口 |----|
口口口口 |----|
口口口口 |----|
2
口口口口 |①---|
口①口口 |----|
口口口口 |----|
口口口口 |----|
3
口口口口 |①---|
口口①口 |----|
口口口口 |----|
口口口口 |----|
4
口口口口 |①---|
口口口口 |----|
口口①口 |----|
口口口口 |----|
5
口口口口 |①---|
口口口口 |----|
口①口口 |----|
口口口口 |----|
6
口口口口 |①---|
口①口口 |----|
口口口口 |----|
口口口口 |----|
7
口口口口 |①---|
口口①口 |----|
口口口口 |----|
口口口口 |----|
8
口口口口 |①---|
口口口口 |----|
口口①口 |----|
口口口口 |----|
9
口口口口 |①---|
口口口口 |----|
口①口口 |----|
口口口口 |----|
10
口口口口 |----|
口口口口 |----|
口口口口 |----|
口口口口 |----|
11
口口口口 |①---|
①口口① |----|
口口口口 |----|
口口口口 |----|
12
口口口口 |----|
口①口口 |----|
口口口口 |①---|
口口口口 |----|
13
口口口口 |①---|
口口①② |----|
口口口口 |②---|
口口口口 |----|
14
口口口口 |①---|
口②②口 |----|
口①①口 |②---|
口口口口 |----|
15
口①①口 |①---|
口口口口 |----|
口口口口 |----|
口口口口 |----|
16
口口口口 |----|
口口①口 |----|
口口口口 |①---|
口口口口 |----|
17
口口口口 |①---|
②①口口 |----|
口口口口 |②---|
口口口口 |----|
18
口口口口 |①---|
口②②口 |----|
口①①口 |②---|
口口口口 |----|
19
口①①口 |①---|
口口口口 |----|
口口口口 |----|
口口口口 |----|
20
口口口口 |----|
口口口口 |----|
口①口口 |①---|
口口口口 |----|
21
口口口口 |①---|
口口口口 |----|
口口①② |②---|
口口口口 |----|
22
口口口口 |①---|
口①①口 |----|
口口口口 |②---|
口②②口 |----|
23
口口口口 |①---|
口口口口 |----|
口①①口 |----|
口口口口 |----|
24
口口口口 |①---|
口口口口 |----|
①口口① |----|
口口口口 |----|
25
口口口口 |①---|
口①①口 |----|
口口口口 |----|
口口口口 |----|
26
口口口口 |①---|
口口口口 |----|
口口口口 |----|
口①①口 |----|
27
口①①口 |①---|
口①①口 |----|
口口口口 |----|
口口口口 |----|
28
口口口口 |----|
口口口口 |----|
口口口口 |----|
口口口口 |----|
29
口口口口 |----|
口口口口 |----|
口口口口 |----|
口口口口 |----|
30
口口口口 |①---|
口口口口 |----|
口口口口 |----|
口①①口 |----|
31
口①①口 |①---|
口①①口 |----|
口口口口 |----|
口口口口 |----|
32
口口口口 |----|
口口口口 |----|
口口口口 |----|
口口口口 |----|
33
口口口口 |----|
口口口口 |----|
口口口口 |----|
口口口口 |----|
34
口口口口 |----|
口口口口 |----|
口口口口 |----|
口口口口 |----|
35
口口口口 |①---|
口②口口 |----|
口①口口 |②---|
口口口口 |----|
36
口口口口 |①---|
口口②口 |----|
口口①口 |②---|
口口口口 |----|
37
口口①口 |①---|
口口口口 |----|
口口口口 |----|
口口口口 |----|
38
口口口口 |①---|
口①②口 |----|
口口口口 |②---|
口口口口 |----|
39
口口口口 |①---|
口口口口 |----|
口①口口 |②---|
口②口口 |----|
40
口口口口 |①---|
口口①口 |----|
口口②口 |②---|
口口口口 |----|
41
口口口口 |①---|
口口口口 |----|
口口口口 |----|
口口①口 |----|
42
口口口口 |①---|
口口②口 |----|
口①口口 |②---|
口口口口 |----|
43
口①口口 |①---|
口口口口 |----|
口口口口 |----|
口口口口 |----|
44
①①口口 |----|
口口口口 |----|
口口口口 |①---|
口口口口 |----|
45
口口口口 |①---|
①①口口 |----|
②②口口 |②---|
口口口口 |----|
46
口口口口 |①---|
口口口口 |----|
口口口口 |----|
①①口口 |----|
47
口口①① |----|
口口口口 |----|
口口口口 |①---|
口口口口 |----|
48
口口口口 |①---|
口口①① |----|
口口②② |②---|
口口口口 |----|
49
口口口口 |①---|
口口口口 |----|
口②口口 |②---|
口口①① |----|
50
口口口口 |①---|
口②口口 |----|
口口①口 |②---|
口口口口 |----|
51
口②口口 |①---|
口口①口 |----|
口口口口 |②---|
口口口口 |----|
52
口②①口 |①---|
口口口口 |----|
口口口口 |②---|
口口口口 |----|
53
①口口① |①---|
②口口② |----|
口口口口 |②---|
口口口口 |----|
54
口口口口 |①---|
口口口口 |----|
①口口① |②---|
②口口② |----|
55
口口口口 |①---|
口口口口 |----|
口②②口 |②---|
口①①口 |----|
56
口②②口 |①---|
口①①口 |----|
口口口口 |②---|
口口口口 |----|
57
口口口口 |①---|
口口口口 |----|
口①口口 |----|
口口口口 |----|
58
口口口口 |①---|
口口口口 |----|
口口①口 |----|
口口口口 |----|
59
口口口口 |①---|
口口口口 |----|
口口口口 |----|
口①口口 |----|
60
口口口口 |①---|
口口口口 |----|
口口口口 |----|
口口①口 |----|
61
口②口口 |①---|
口①口口 |----|
口口口口 |②---|
口口口口 |----|
62
口口口口 |①---|
口口①口 |----|
口口②口 |②---|
口口口口 |----|
63
口口口口 |①---|
口②口口 |----|
口①口口 |②---|
口口口口 |----|
64
口①口口 |①---|
口口口口 |----|
口口口口 |----|
口口口口 |----|
65
口口口口 |①---|
口口口① |----|
口口②口 |②---|
口口口口 |----|
66
口口口口 |①---|
口①口口 |----|
②口口口 |②---|
口口口口 |----|
67
口口口口 |①---|
口①①口 |----|
口②②口 |②---|
口口口口 |----|
68
口口口口 |①---|
口口口口 |----|
口②②口 |②---|
口①①口 |----|
69
口口口口 |①---|
①口口口 |----|
口②口口 |②---|
口口口口 |----|
70
口口口口 |①---|
口口①口 |----|
口口口② |②---|
口口口口 |----|
71
口口口口 |①---|
口①①口 |----|
口②②口 |②---|
口口口口 |----|
72
口口口口 |①---|
口口口口 |----|
口②②口 |②---|
口①①口 |----|
73
口口口口 |①---|
①口②口 |----|
口口口口 |②---|
口口口口 |----|
74
口口口口 |①---|
口口口口 |----|
口①口② |②---|
口口口口 |----|
75
口口口口 |①---|
口口口口 |----|
②②②② |②---|
①①①① |----|
76
②②②② |①---|
①①①① |----|
口口口口 |②---|
口口口口 |----|
77
口口口口 |①---|
①口②口 |----|
口口口口 |②---|
口口口口 |----|
78
口口口口 |①---|
②口口② |----|
①口口① |②---|
口口口口 |----|
79
口口口口 |①---|
口口口口 |----|
口①口② |②---|
口口口口 |----|
80
口②②口 |①---|
口①①口 |----|
口口口口 |②---|
口口口口 |----|
81
①口口① |①---|
口口口口 |----|
口口口口 |----|
口口口口 |----|
82
口口口口 |①---|
口口①口 |----|
口口口口 |----|
口口口口 |----|
83
口口口口 |①---|
口①口口 |----|
口口口口 |----|
口口口口 |----|
84
口口口口 |①---|
①②口口 |----|
口口口口 |②---|
口口口口 |----|
85
口口口口 |①---|
口口口口 |----|
口口①② |②---|
口口口口 |----|
86
口口口口 |①---|
口口②① |----|
口口口口 |②---|
口口口口 |----|
87
口口口口 |①---|
口口口口 |----|
②①口口 |②---|
口口口口 |----|
88
口口口口 |①---|
①②口口 |----|
口口口口 |②---|
口口口口 |----|
89
口口口口 |①---|
口口①口 |----|
口口口口 |----|
口口口口 |----|
90
口①①口 |①---|
口口口口 |②---|
口②③④ |③---|
口口口口 |④---|
91
口口口口 |①---|
④③②① |②---|
口口口口 |③---|
口口口口 |④---|
92
口口口口 |①---|
口口口口 |②---|
①②③④ |③---|
口口口口 |④---|
93
口口口口 |①---|
口②①口 |----|
口口口口 |②---|
口口口口 |----|
94
口①①口 |①---|
口口口口 |②---|
②③④口 |③---|
口口口口 |④---|
95
口口口口 |①---|
口④③② |②---|
口口口① |③---|
口口口口 |④---|
96
口口口口 |①---|
①口口口 |②---|
②③④口 |③---|
口口口口 |④---|
97
口口口口 |①---|
口②①口 |----|
口口口口 |②---|
口口口口 |----|
98
口①①口 |①---|
口口口口 |----|
口口口口 |----|
口口口口 |----|


不確定度: 0

最終更新:2013年10月01日 21:17