創世ノート
PON+wac

ADVANCED

Level: 7
BPM: 200
Notes: 465

1
口口口口 |----|
口口口口 |----|
口口口口 |----|
口口口口 |----|
2
口口口口 |①---|
口口口口 |----|
口口口口 |----|
口①口口 |----|
3
口口口口 |①---|
口口口口 |----|
①口口口 |----|
口口口口 |----|
4
口口口口 |①---|
口口口口 |----|
口口口② |②---|
口口①口 |----|
5
口①口口 |①---|
②口口口 |----|
口口口口 |②---|
口口口口 |----|
6
口口①口 |①---|
口口口口 |----|
口口口口 |----|
口口口口 |----|
7
口口口口 |①---|
口口口① |----|
口口②口 |②---|
口口口口 |----|
8
口口口口 |①---|
口①口口 |----|
口口口口 |----|
口口口口 |----|
9
口口口口 |①---|
口口①口 |----|
口口口口 |----|
口口口口 |----|
10
口口口口 |----|
口口口口 |----|
口口口口 |----|
口口口口 |----|
11
口口口口 |①---|
口①①口 |----|
口①①口 |②---|
口②口口 |----|
12
口口口口 |①---|
口③口口 |----|
口口②口 |②---|
口口口① |③---|
13
口口①口 |①---|
口口口口 |----|
②口口③ |--②-|
口口口口 |--③-|
14
①①口口 |①---|
口口口口 |----|
②②口口 |②---|
口口口口 |----|
15
口口口口 |①---|
①①口口 |----|
口口口口 |----|
口口口口 |----|
16
口口口口 |----|
口口②口 |----|
口①口口 |①---|
口口口口 |②---|
17
口①口口 |①---|
口口口口 |----|
③口口② |--②-|
口口口口 |--③-|
18
口口口口 |①---|
口口②② |----|
口口口口 |②---|
口口①① |----|
19
口口口口 |①---|
口口口口 |----|
口口①① |----|
口口口口 |----|
20
口口口口 |----|
口口口口 |----|
口口②口 |①---|
口①口口 |②---|
21
口口③口 |①---|
口①口口 |----|
口口口② |--②-|
口口口口 |--③-|
22
口口口口 |①---|
①①口口 |----|
口口口口 |②---|
②②口口 |----|
23
②口口② |①---|
口③③口 |--②-|
①①口口 |----|
口口口口 |③---|
24
口①①口 |①---|
③口口③ |--②-|
口口口口 |----|
口②②口 |③---|
25
口口口口 |①---|
口口口口 |----|
口①①口 |----|
口口口口 |----|
26
⑤⑤⑤⑤ |①-②-|
③口口④ |--③-|
口①②口 |--④-|
①③④② |--⑤-|
27
口口口口 |----|
口口口口 |----|
口口口口 |----|
口口口口 |----|
28
口口口口 |----|
口口口口 |----|
口口口口 |----|
口口口口 |----|
29
口口口口 |----|
口口口口 |----|
口口口口 |----|
口口口口 |----|
30
口口口口 |①-②-|
④口口口 |③-④-|
口①③②
①④口口

⑥口口⑥
口口口⑤
口⑥口口 |--⑤-|
口口⑤口 |--⑥-|
31
口口口口 |----|
口口口口 |----|
口口口口 |----|
口口口口 |----|
32
口口口口 |----|
口口口口 |----|
口口口口 |----|
口口口口 |----|
33
口口口口 |----|
口口口口 |----|
口口口口 |----|
口口口口 |----|
34
口①③口 |①---|
②口口④ |②---|
口①③口 |③---|
②口口④ |④---|
35
⑤⑤口③ |①-②-|
口口②口 |--③-|
口①口④ |--④-|
口口口口 |--⑤-|
36
口口口口 |--①-|
②②口口 |--②-|
①①④④ |--③-|
③③口口 |--④-|
37
口口口口 |----|
口①口口 |----|
口口②口 |--①-|
口③口口 |②-③-|
38
④口②口 |①-②-|
口口口① |--③-|
③口口口 |--④-|
口口口口 |----|
39
口①④④ |①---|
口③口口 |--②-|
②口口口 |--③-|
口口口口 |--④-|
40
口口口口 |--①-|
口口②② |--②-|
④④①① |--③-|
口口③③ |--④-|
41
口①口口 |----|
口口②口 |----|
口③口口 |--①-|
口口口口 |②-③-|
42
口口③③ |①-②-|
④④口口 |--③-|
②口⑤⑤ |--④-|
⑥⑥①口 |⑤-⑥-|
43
口口口口 |----|
口口口口 |----|
口口口口 |----|
口口口口 |----|
44
口口④口 |----|
口①口口 |----|
口口②口 |①-②-|
口③口口 |③-④-|
45
口③口⑧ |①-②-|
⑤口口② |③-④-|
①口口⑥ |⑤-⑥-|
⑦口④口 |⑦-⑧-|
46
口口口口 |①---|
口口口口 |----|
①①口口 |----|
口口口口 |----|
47
口④口口 |----|
口口①口 |----|
口②口口 |①-②-|
口口③口 |③-④-|
48
口口③口 |①-②-|
②口口⑤ |③-④-|
⑥口口① |⑤-⑥-|
口④口⑦ |⑦---|
49
口②④口 |①---|
口口口③ |----|
口口①① |--②-|
口口口口 |③-④-|
50
口口口口 |----|
口口口口 |----|
①口口口 |①---|
口口②口 |②---|
51
⑤口口口 |①---|
口①口② |----|
④口口口 |②-③-|
口口口③ |④-⑤-|
52
口③口口 |----|
口②②③ |①---|
口口①口 |②---|
①口口口 |③---|
53
③口口③ |①---|
口④④口 |②-③-|
①口口① |--④-|
⑤②②口 |⑤---|
54
口口⑥口 |①-②-|
①⑤口② |--③-|
④口口口 |④-⑤-|
口口口③ |⑥---|
55
口口⑤口 |①-②-|
口⑥④口 |③-④-|
⑦③②口 |--⑤-|
口①口口 |⑥-⑦-|
56
②②口口 |--①-|
②口口口 |②---|
口口口① |--③-|
③口①① |----|
57
口口口口 |①---|
口③口口 |----|
②口口口 |----|
口口口① |②-③-|
58
口口口口 |----|
口口口口 |----|
口口②口 |①---|
口①口口 |②---|
59
口③口口 |①---|
②口口① |----|
口口口口 |----|
口口口口 |②-③-|
60
口口口口 |----|
口②口口 |----|
口口口口 |①---|
①口①口 |②---|
61
口②口① |①---|
③口③口 |②---|
口口口① |③---|
口④口口 |④---|
62
①④口② |①---|
口口口口 |②---|
①③口③ |③---|
口口口口 |④---|
63
口口口口 |①---|
口④口口 |②---|
③口①口 |③---|
口②口口 |④---|
64
④④④④ |①---|
口口①口 |②-③-|
口口口② |--④-|
口口③口 |----|
65
口口⑥口 |①---|
口⑤②口 |②---|
①口口④ |③-④-|
口③口口 |⑤-⑥-|
66
口口口口 |①---|
①口口口 |②---|
口口②④ |③---|
③口口口 |④---|
67
③口口③ |①--②|
②①①② |--③-|
⑥口口⑥ |④--⑤|
⑤④④⑤ |--⑥-|
68
口③③口 |①--②|
②④④② |--③-|
口①①口 |④---|
口口口口 |----|
69
口口口口 |①---|
④口口② |②---|
口口口口 |③---|
口①③口 |④---|
70
③口①④ |①--②|
口口①④ |--③-|
②②口口 |④--⑤|
⑤⑤口⑥ |--⑥-|
71
②口口口 |①---|
口口③口 |--②-|
口口①口 |----|
口口口口 |③---|
72
④④④④ |①-②-|
②口口① |--③-|
②口口① |--④-|
③③③③ |----|
73
口口口口 |①---|
口②口④ |----|
①口③口 |--②-|
口口口口 |③-④-|
74
口口口口 |--①-|
口口②口 |②---|
口①口口 |----|
口口口口 |----|
75
口口口口 |①--②|
③③③③ |--③-|
②②②②
①①①①

⑤④④⑤
口口口口
口口口口 |④--⑤|
⑥口口⑥ |--⑥-|
76
口④④口 |①--②|
口③③口 |--③-|
②口口② |④---|
口①①口 |----|
77
口口口① |①---|
口口口口 |②---|
口口口② |③---|
口③口④ |④---|
78
①①①① |①--②|
②②②② |--③-|
③③③③
口口口口

⑥口口⑥
口口口口
口口口口 |④--⑤|
⑤④④⑤ |--⑥-|
79
口①口口 |①---|
口口口口 |--②-|
口②口口 |----|
口口③口 |③---|
80
④⑤⑤② |①-②-|
口①③口 |③-④-|
口③①口 |--⑤-|
②口口④ |----|
81
②口口口 |①---|
口口口口 |----|
口口①① |②---|
①①口口 |----|
82
口口口口 |①---|
口①口口 |----|
口口口② |②---|
口口口口 |----|
83
口口口口 |①---|
②口口口 |----|
口口口口 |②---|
口①口口 |----|
84
口④口① |①---|
口口③口 |②---|
口②口口 |③---|
口口口口 |④---|
85
口口口口 |①---|
口口②口 |----|
口③口① |----|
口口口口 |②-③-|
86
口口①口 |----|
口②口口 |----|
口口口口 |----|
口口口口 |①-②-|
87
口口口口 |----|
口口口口 |----|
口口①口 |----|
口②口口 |①-②-|
88
口口口口 |----|
口口②口 |----|
口①口口 |----|
口口口口 |①-②-|
89
口口①① |①-②-|
②②口口 |③-④-|
口口③③ |--⑤-|
⑤⑤④④ |----|
90
①①①① |①-②-|
口口口口 |--③-|
⑤②③口 |④---|
口⑥口④ |⑤-⑥-|
91
口口①口 |--①-|
口④④② |②---|
口③③口 |③---|
口口口口 |④---|
92
口③④⑦ |①-②-|
②口⑥口 |③-④-|
口⑤口口 |--⑤-|
口①①口 |⑥-⑦-|
93
⑥口口⑥ |①-②-|
④口口⑤ |③-④-|
①⑥②③ |--⑤-|
口④⑤口 |--⑥-|
94
口口口口 |①-②-|
口②①口 |--③-|
⑤口③口 |④---|
口⑥口④ |⑤-⑥-|
95
口口①口 |--①-|
口④④② |②---|
口③③口 |③---|
口口口口 |④---|
96
口③④⑦ |①-②-|
②口⑥口 |③-④-|
口⑤口口 |--⑤-|
口①①口 |⑥-⑦-|
97
口⑤⑤口 |①-②-|
③口口④ |--③-|
①口②口 |--④-|
口③④口 |--⑤-|


不確定度: 0

最終更新:2013年10月01日 21:17