STULTI
MAX MAXIMIZER VS DJ TOTTO

BASIC

Level: 3
BPM: 90-182
Notes: 244

BPM: 182
1
口口口口 |----|
口口口口 |----|
口口口口 |----|
口口口口 |----|
2
口口口口 |①---|
口口①口 |----|
口口口口 |----|
口口口口 |----|
3
口口口口 |----|
口口口口 |----|
口口口② |①---|
口口口① |②---|
4
口口口② |①---|
口口口① |②---|
口口口口 |----|
口口口口 |----|

BPM: 90
5
口口口口 |①---|
口①①口 |----|
口口口口 |----|
口口口口 |----|
6
口口口口 |①---|
口口①口 |----|
口口口口 |----|
口口口口 |----|
7
口口口口 |①---|
口口口口 |----|
口①①口 |----|
口口口口 |----|
8
口口口口 |①---|
口①①口 |----|
口口口口 |----|
口口口口 |----|
9
口口口口 |①---|
口口口口 |----|
口①①口 |----|
口口口口 |----|

BPM: 182
10
口口口④ |①---|
口口口③ |②---|
口口口② |③---|
口口口① |④---|
11
④口口口 |①---|
③口口口 |②---|
②口口口 |③---|
①口口口 |④---|
12
口口④口 |①---|
口口③口 |②---|
口口②口 |③---|
口口①口 |④---|
13
口④口口 |①---|
口③口口 |②---|
口②口口 |③---|
口①口口 |④---|
14
①口口① |①---|
口口口口 |----|
口口口口 |----|
口口口口 |----|
15
口口口口 |----|
口口口口 |----|
口口口口 |----|
口口口口 |----|
16
口口口口 |----|
口口口口 |----|
口口口口 |----|
口口口口 |----|
17
口口口口 |----|
口口口口 |----|
口口口口 |----|
口口口口 |----|
18
口口口口 |①---|
口①①口 |----|
口口口口 |----|
口口口口 |----|
19
口口口口 |①---|
口口口口 |----|
口①①口 |----|
口口口口 |----|
20
口口口口 |①---|
口①①口 |----|
口口口口 |----|
口口口口 |----|
21
口口口口 |①---|
口口口口 |----|
口①①口 |----|
口口口口 |----|
22
口口口口 |①---|
口口口口 |②---|
口口④② |③---|
口口③① |④---|
23
口口口口 |①---|
口口口口 |②---|
②④口口 |③---|
①③口口 |④---|
24
口口④② |①---|
口口③① |②---|
口口口口 |③---|
口口口口 |④---|
25
②④口口 |①---|
①③口口 |②---|
口口口口 |③---|
口口口口 |④---|
26
口口口口 |①---|
口口口口 |②---|
口口④③ |③---|
口口②① |④---|
27
口口口口 |①---|
口口口口 |②---|
③④口口 |③---|
①②口口 |④---|
28
口口④③ |①---|
口口②① |②---|
口口口口 |③---|
口口口口 |④---|
29
③④口口 |①---|
①②口口 |②---|
口口口口 |③---|
口口口口 |④---|
30
口口口口 |①---|
口口口口 |②---|
口④②口 |③---|
口③①口 |④---|
31
口口口口 |①---|
口口口口 |②---|
④口口② |③---|
③口口① |④---|
32
口④②口 |①---|
口③①口 |②---|
口口口口 |③---|
口口口口 |④---|
33
④口口② |①---|
③口口① |②---|
口口口口 |③---|
口口口口 |④---|
34
口口口口 |①---|
口口口口 |②---|
④口口③ |③-④-|
②口口① |----|
35
③口口④ |①---|
①口口② |②---|
口口口口 |③-④-|
口口口口 |----|
36
口口口口 |①---|
口口口口 |②---|
④口口③ |③-④-|
②口口① |----|
37
③口口④ |①---|
①口口② |②---|
口口口口 |③-④-|
口口口口 |----|
38
口口口口 |①---|
口①①口 |----|
口①①口 |②---|
口口口② |----|
39
口口口口 |①---|
口口口② |----|
口口口① |②---|
口口口口 |----|
40
口口口口 |①---|
口①①口 |----|
口①①口 |②---|
②口口口 |----|
41
口口口口 |①---|
②口口口 |----|
①口口口 |②---|
口口口口 |----|
42
口口口口 |①---|
口①①口 |----|
口①①② |②---|
口口口口 |----|
43
口口口② |①---|
口口口① |----|
口口口口 |②---|
口口口口 |----|
44
口口口口 |①---|
口①①口 |----|
②①①口 |②---|
口口口口 |----|
45
②口口口 |①---|
①口口口 |----|
口口口口 |②---|
口口口口 |----|
46
口口口口 |①---|
口①①口 |----|
口①①口 |----|
口口口口 |----|
47
口口口口 |----|
口口口口 |----|
口口口口 |----|
口口口口 |----|
48
口口口口 |----|
口口口口 |----|
口口口口 |----|
口口口口 |----|
49
口口②① |①---|
口③口口 |②---|
口口④口 |③--④|
口⑤口口 |--⑤-|
50
口口口④ |①---|
口口口③ |②---|
口口口② |③---|
口口口① |④---|
51
④口口口 |①---|
③口口口 |②---|
②口口口 |③---|
①口口口 |④---|
52
口口口口 |①---|
④③②① |②---|
口口口口 |③---|
口口口口 |④---|
53
口口口口 |①---|
口口口口 |②---|
④③②① |③---|
口口口口 |④---|
54
口口口口 |①---|
口口口口 |--②-|
口②②口 |----|
口口口① |----|
55
③口口口 |①---|
②口口口 |----|
口口口口 |②---|
口①①口 |③---|
56
口口口口 |①---|
口口口口 |②---|
口④③口 |③---|
口②①口 |④---|
57
口口口口 |①---|
②③口② |②---|
①口④① |③-④-|
口⑤口口 |⑤---|
58
④口口口 |①---|
③口口口 |②---|
②口口口 |③---|
①口口口 |④---|
59
口口口④ |①---|
口口口③ |②---|
口口口② |③---|
口口口① |④---|
60
口口口口 |①---|
①②③④ |②---|
口口口口 |③---|
口口口口 |④---|
61
口口口口 |①---|
口口口口 |②---|
①②③④ |③---|
口口口口 |④---|
62
口口口口 |①---|
口口口口 |--②-|
口②②口 |----|
①口口口 |----|
63
口口口③ |①---|
口①①② |----|
口口口口 |②---|
口口口口 |③---|
64
口口口口 |①---|
口口口口 |②---|
③口口④ |③---|
①口口② |④---|
65
口口口口 |①---|
①③③② |②---|
口③③口 |③---|
口口口口 |----|
66
口口口口 |①---|
口口口口 |--②-|
②口口② |----|
①口口① |----|
67
②口口② |①---|
①口口① |--②-|
口口口口 |----|
口口口口 |----|
68
口口口口 |①---|
口口口口 |--②-|
口②②口 |----|
口①①口 |----|
69
口②②口 |①---|
口①①口 |--②-|
口口口口 |----|
口口口口 |----|
70
口口口口 |①---|
口口口口 |--②-|
②口口② |----|
口①①口 |----|
71
②口口② |①---|
口①①口 |--②-|
口口口口 |----|
口口口口 |----|
72
口口口口 |①---|
口口口口 |--②-|
口②②口 |----|
①口口① |----|
73
口②②口 |①---|
①口口① |--②-|
口口口口 |----|
口口口口 |----|
74
口口口口 |①---|
口①①口 |----|
口①①口 |----|
口口口口 |----|


不確定度: 0

最終更新:2013年10月01日 22:01