STULTI
MAX MAXIMIZER VS DJ TOTTO

ADVANCED

Level: 8
BPM: 90-182
Notes: 480

BPM: 182
1
口口口口 |----|
口口口口 |----|
口口口口 |----|
口口口口 |----|
2
口口口口 |①---|
口①①口 |----|
口①①口 |----|
口口口口 |----|
3
口口口口 |----|
口口口口 |----|
口④③口 |①-②-|
口②①口 |③-④-|
4
口④③口 |①-②-|
⑤②①⑤ |③-④-|
⑤口口⑤ |⑤---|
口口口口 |----|

BPM: 90
5
口口口口 |①---|
口①①口 |----|
口①①口 |----|
口口口口 |----|
6
口口口口 |①---|
口口口口 |----|
①口口口 |----|
口①口口 |----|
7
口⑥口口 |①②-③|
⑤口口口 |④⑤-⑥|
④口口①
口③②①

口口⑦口
⑫口口⑧
⑪口口⑧ |⑦-⑧⑨|
口⑩⑨口 |⑩⑪-⑫|
8
口①②口 |①-②③|
口口口③ |④⑤-⑥|
⑥口口③
口⑤④口

口⑧⑨口
⑦口口⑨
口口口口 |⑦-⑧-|
口口口口 |⑨---|
9
口口口口 |①---|
口①①口 |----|
口①①口 |----|
口口口口 |----|

BPM: 182
10
②口③口 |①---|
口④口① |②---|
口②口③ |③---|
④口①口 |④---|
11
②口③口 |①---|
口④口① |②---|
②口③口 |③---|
口④口① |④---|
12
口②口① |①---|
②④①③ |②---|
口口口口 |③---|
④口③口 |④---|
13
②口口口 |①---|
②口口口 |②---|
口④④① |③---|
口③③① |④---|
14
口①①口 |①---|
口①①口 |----|
口口口口 |----|
口口口口 |----|
15
口口口口 |----|
口口口口 |----|
口口口口 |----|
口口口口 |----|
16
口口口口 |----|
口口口口 |----|
口口口口 |----|
口口口口 |----|
17
口口口口 |----|
口口口口 |----|
口口口口 |----|
口口口口 |----|
18
口口口口 |①---|
口口口口 |----|
①口口口 |----|
①口口口 |----|
19
口口口口 |①---|
口①口口 |----|
口口①口 |----|
口口口口 |----|
20
口口①① |①---|
口口口口 |----|
口口口口 |----|
口口口口 |----|
21
口口口口 |①---|
口①①① |----|
口口①口 |----|
口口①口 |----|
22
口口口口 |①-②-|
④⑤⑥⑥ |③-④-|
口口口口 |⑤-⑥-|
③③②① |----|
23
④⑤⑥⑥ |①-②-|
口口口口 |③-④-|
③③②① |⑤-⑥-|
口口口口 |----|
24
口口口口 |①-②-|
⑥⑥⑤④ |③-④-|
口口口口 |⑤-⑥-|
①②③③ |----|
25
口⑥⑤④ |①-②-|
口⑥口口 |③-④-|
①②③③ |⑤---|
口口口口 |⑥---|
26
③口④口 |①-②-|
③口⑤口 |③-④-|
②口⑥口 |⑤-⑥-|
①口⑥口 |----|
27
口③口④ |①-②-|
口③口⑤ |③-④-|
口②口⑥ |⑤-⑥-|
口①口⑥ |----|
28
①口⑥口 |①-②-|
②口⑥口 |③-④-|
③口⑤口 |⑤-⑥-|
③口④口 |----|
29
口①口口 |①-②-|
⑤②⑦⑥ |③-④-|
⑤③⑦⑥ |⑤-⑥-|
口③口④ |⑦---|
30
口口口口 |①-②-|
④⑤⑥⑥ |③-④-|
口口口口 |⑤-⑥-|
①②③③ |----|
31
⑥⑥⑤④ |①-②-|
口口口口 |③-④-|
③③②① |⑤-⑥-|
口口口口 |----|
32
口口口口 |①-②-|
⑥⑥⑤④ |③-④-|
口口口口 |⑤-⑥-|
③③②① |----|
33
④⑤⑥口 |①-②-|
口口⑥口 |③-④-|
①②③③ |⑤---|
口口口口 |⑥---|
34
③口口⑥ |①-②-|
口③⑥口 |③-④-|
口⑤②口 |⑤-⑥-|
④口口① |----|
35
口③⑥口 |①-②-|
③口口⑥ |③-④-|
口⑤②口 |⑤-⑥-|
④口口① |----|
36
③口口⑥ |①-②-|
口③⑥口 |③-④-|
口⑤②口 |⑤-⑥-|
④口口① |----|
37
口③⑥口 |①-②-|
③口口⑥ |③-④-|
口⑤②口 |⑤-⑥-|
④口口① |----|
38
口口④口 |①---|
口口口③ |②---|
口口口② |③---|
口口①口 |④---|
39
口①口口 |①---|
②口口口 |②---|
③口口口 |③---|
口④口口 |④---|
40
口口①口 |①---|
口口口② |②---|
口口口③ |③---|
①口④口 |④---|
41
口④口口 |①---|
③口口口 |②---|
②口口口 |③---|
口①口口 |④---|
42
①口④口 |①---|
口口口③ |②---|
口口口② |③---|
口口①口 |④---|
43
口①口口 |①---|
②口口口 |②---|
③口口口 |③---|
口④口口 |④---|
44
口口口口 |①---|
口④口口 |②---|
③口口② |③---|
口口①口 |④---|
45
口口①② |①---|
口口③口 |----|
口口口口 |②---|
口口口口 |③---|
46
口口口口 |①---|
口口口口 |----|
①口口口 |----|
口①口口 |----|
47
口口口口 |----|
口口口口 |----|
口口口口 |----|
口口口口 |----|
48
口口口口 |----|
口口口口 |----|
口口口口 |----|
口口口口 |----|
49
口③③口 |①---|
②口口① |②---|
④口口④ |③--④|
⑤②①⑤ |--⑤-|
50
④⑥⑤④ |①-②-|
②③③② |③-④-|
⑥①①⑤ |--⑤-|
口口口口 |--⑥-|
51
口口口口 |--①-|
②口口① |--②-|
口②①口 |--③-|
口⑤④③ |④-⑤-|
52
⑥④④⑤ |①-②-|
③②②③ |③-④-|
①⑥⑤① |--⑤-|
口口口口 |--⑥-|
53
口口口⑥ |--①-|
口口口⑤ |②-③-|
口口口④ |--④-|
口③②① |⑤-⑥-|
54
②②口口 |①---|
①①口口 |--②-|
口口口口 |----|
口口口③ |--③-|
55
口口口口 |①---|
口口口口 |----|
口口④口 |--②-|
①③②口 |③-④-|
56
①③②④ |①-②-|
⑤口④⑤ |③-④-|
③①口② |--⑤-|
⑥口口⑥ |--⑥-|
57
口④③口 |--①-|
口②②口 |--②-|
④口口③ |③-④-|
口①①⑤ |⑤---|
58
④⑥⑤④ |①-②-|
②③③② |③-④-|
⑥①①⑤ |--⑤-|
口口口口 |--⑥-|
59
口口口口 |--①-|
②口口① |--②-|
口②①口 |--③-|
口⑤④③ |④-⑤-|
60
口④④⑥ |①-②-|
③②②③ |③-④-|
①⑤⑤① |--⑤-|
口口口口 |--⑥-|
61
口口口口 |--①-|
②口①③ |②-③-|
④⑤⑥口 |--④-|
口②③① |⑤-⑥-|
62
口口口口 |①---|
口②②口 |--②-|
口口口① |----|
口口口口 |----|
63
口口口口 |①---|
口口口② |----|
口①①③ |--②-|
口口口④ |③-④-|
64
口口口口 |①-②-|
⑦⑤⑥⑧ |③-④-|
口③④口 |⑤-⑥-|
口①②口 |⑦-⑧-|
65
⑤⑤⑤⑤ |①-②-|
口口口口 |③-④-|
①③④② |⑤---|
口口口口 |----|
66
口口口口 |①-②-|
⑥⑥⑤④ |③-④-|
口口口口 |⑤-⑥-|
③③②① |----|
67
⑥⑥⑤④ |①-②-|
口口口口 |③-④-|
③③②① |⑤-⑥-|
口口口口 |----|
68
口口口口 |①-②-|
④⑤⑥⑥ |③-④-|
口口口口 |⑤-⑥-|
①②③③ |----|
69
④⑤⑥⑥ |①-②-|
口口口口 |③-④-|
①②③③ |⑤-⑥-|
口口口口 |----|
70
③口⑥口 |①-②-|
③口⑥口 |③-④-|
②口⑤口 |⑤-⑥-|
①①④④ |----|
71
口③口⑥ |①-②-|
口③口⑥ |③-④-|
口②口⑤ |⑤-⑥-|
①①④④ |----|
72
口③⑥口 |①-②-|
口③⑥口 |③-④-|
口②⑤口 |⑤-⑥-|
①①④④ |----|
73
③口口⑥ |①-②-|
③口口⑥ |③-④-|
②口口⑤ |⑤-⑥-|
①①④④ |----|
74
口口口口 |①---|
口①①口 |----|
口①①口 |----|
口口口口 |----|


不確定度: 0

最終更新:2013年10月01日 22:01