ラキラキ
Mutsuhiko Izumi & S-C-U

BASIC

Level: 3
BPM: 165
Notes: 220

1
口口口口 |----|
口口口口 |----|
口口口口 |----|
口口口口 |----|
2
口口口口 |----|
口口口口 |----|
口口口口 |----|
口口口口 |----|
3
口口口口 |----|
口口口口 |----|
口口口口 |----|
口口口口 |----|
4
口口口口 |①---|
口①①口 |----|
口口口口 |----|
口口口口 |----|
5
口口口口 |①---|
口口口口 |----|
口①①口 |----|
口口口口 |----|
6
口口口口 |①---|
①口口① |----|
口口口口 |----|
口口口口 |----|
7
口口口口 |①---|
口口口口 |----|
①口口① |----|
口口口口 |----|
8
口口口口 |①---|
口①①口 |----|
口口口口 |----|
口口口口 |----|
9
口口口口 |①---|
口口口口 |----|
口①①口 |----|
口口口口 |----|
10
口口口口 |①---|
①口口① |----|
口口口口 |----|
口口口口 |----|
11
口②口口 |①---|
口口口口 |----|
①口口① |----|
口口口口 |②---|
12
口口①口 |①---|
口口口口 |----|
口口口口 |----|
口口口口 |----|
13
①口口口 |----|
口口口口 |----|
口口口口 |----|
口口口口 |①---|
14
口口口① |①---|
口口口口 |----|
口口口口 |----|
口口口口 |----|
15
口口口口 |①---|
口①②口 |----|
口口口口 |②---|
口口口口 |----|
16
口口口口 |①---|
口口口口 |----|
①口口① |----|
口口口口 |----|
17
口口口口 |----|
口口②口 |----|
口①口口 |①---|
口口口口 |②---|
18
口①口口 |①---|
口口口口 |----|
口口口口 |----|
口口口口 |----|
19
口口口口 |①---|
①口口① |----|
口口口口 |----|
口口口口 |----|
20
口口口口 |----|
口口口口 |----|
口口口口 |----|
口口口口 |----|
21
口口口口 |①---|
③④口口 |②---|
②①口口 |③---|
口口口口 |④---|
22
口口①口 |①---|
口口②口 |②---|
口口③口 |③---|
口口④口 |④---|
23
口口口口 |①---|
口口①② |②---|
口口④③ |③---|
口口口口 |④---|
24
口④口口 |①---|
口③口口 |②---|
口②口口 |③---|
口①口口 |④---|
25
口口口口 |①---|
③④口口 |②---|
②①口口 |③---|
口口口口 |④---|
26
口口①④ |①---|
口口②③ |②---|
口口口口 |③---|
口口口口 |④---|
27
口口口口 |①---|
口口④③ |②---|
口口①② |③---|
口口口口 |④---|
28
口①口口 |①---|
口②口口 |②---|
口口③口 |③---|
口口④口 |④---|
29
口口口口 |①---|
③④口口 |②---|
②①口口 |③---|
口口口口 |④---|
30
口口①口 |①---|
口口②口 |②---|
口口③口 |③---|
口口④口 |④---|
31
口口口口 |①---|
口口①② |②---|
口口④③ |③---|
口口口口 |④---|
32
口④口口 |①---|
口③口口 |②---|
口②口口 |③---|
口①口口 |④---|
33
口口口口 |①---|
③④口口 |②---|
②①口口 |③---|
口口口口 |④---|
34
口口①④ |①---|
口口②③ |②---|
口口口口 |③---|
口口口口 |④---|
35
口口口口 |①---|
口口④③ |②---|
口口①② |③---|
口口口口 |④---|
36
口①口口 |①---|
口②口口 |②---|
口③口口 |③---|
口④口口 |④---|
37
②口口③ |①---|
口①①口 |----|
口口口口 |②---|
口口口口 |③---|
38
口口口口 |①---|
②口口③ |----|
口①①口 |②---|
口口口口 |③---|
39
口口口口 |①---|
口口口口 |②---|
③口口④ |③---|
①口口② |④---|
40
③口口④ |①---|
①口口② |②---|
口口口口 |③---|
口口口口 |④---|
41
②口口③ |①---|
口①①口 |----|
口口口口 |②---|
口口口口 |③---|
42
口口口口 |①---|
②口口③ |----|
口①①口 |②---|
口口口口 |③---|
43
口口口口 |①---|
口口口口 |②---|
③口口④ |③---|
①口口② |④---|
44
口①①口 |①---|
口②②口 |②---|
口③③口 |③---|
口口口口 |----|
45
口口口口 |①---|
口口口口 |----|
口口口口 |----|
①口口① |----|
46
①口口① |①---|
口口口口 |----|
口口口口 |----|
口口口口 |----|
47
口口口口 |①---|
③④口口 |②---|
②①口口 |③---|
口口口口 |④---|
48
口口口口 |①---|
口口①② |②---|
口口④③ |③---|
口口口口 |④---|
49
口③口口 |①---|
口②口口 |②---|
口①口口 |③---|
口口口口 |----|
50
②口口① |----|
口口口口 |----|
口口口口 |①---|
口口口口 |②---|
51
口口口口 |①---|
②①口口 |②---|
③④口口 |③---|
口口口口 |④---|
52
口口口口 |①---|
口口①② |②---|
口口④③ |③---|
口口口口 |④---|
53
口口口口 |①---|
③④口口 |②---|
②①口口 |③---|
口口口口 |④---|
54
口口口口 |①---|
口口①口 |②---|
口口②口 |③---|
口口③口 |----|
55
口口口口 |①---|
③④口口 |②---|
②①口口 |③---|
口口口口 |④---|
56
口口口口 |①---|
口口④③ |②---|
口口①② |③---|
口口口口 |④---|
57
口口口口 |①---|
口③③口 |②---|
口②②口 |③---|
口①①口 |----|
58
①口口② |----|
口口口口 |----|
口口口口 |①---|
口口口口 |②---|
59
口口口口 |①---|
②①①② |②---|
③④④③ |③---|
口口口口 |④---|
60
①口口② |----|
口口口口 |----|
口口口口 |①---|
口口口口 |②---|
61
口②②口 |①---|
口口口口 |----|
口口口口 |②---|
口①①口 |----|
62
②口口② |①---|
口口口口 |----|
口口口口 |②---|
①口口① |----|
63
口口口口 |①---|
①②③④ |②---|
口口口口 |③---|
口口口口 |④---|
64
口口口口 |①---|
口口口口 |②---|
④③②① |③---|
口口口口 |④---|
65
口口口口 |①---|
①②③④ |②---|
口口口口 |③---|
口口口口 |④---|
66
④③②① |①---|
口口口口 |②---|
口口口口 |③---|
口口口口 |④---|
67
口口口口 |①---|
①口口① |----|
口口口口 |②---|
②口口② |----|
68
①口口① |①---|
口口口口 |----|
口②③口 |②---|
口口口口 |③---|
69
口口口口 |①---|
口口口口 |----|
口口口① |----|
口口口口 |----|
70
口口口口 |①---|
口①①口 |----|
口口口口 |----|
口口口口 |----|


不確定度: 0

最終更新:2013年10月01日 21:10