Empathetic
Sota÷Des

BASIC

Level: 5
BPM: 180
Notes: 332

1
口口口口 |----|
口口口口 |----|
口口口口 |----|
口口口口 |----|
2
①口口② |①---|
口口口口 |----|
口口口口 |②---|
口口口口 |----|
3
口口口口 |①---|
口①①口 |----|
口①①口 |----|
口口口口 |----|
4
口口口口 |①---|
口口口口 |----|
口口口口 |②---|
①口口② |----|
5
口口口口 |①---|
口①①口 |----|
口①①口 |----|
口口口口 |----|
6
②③口口 |①---|
口口口口 |②---|
口口口口 |--③-|
口口口① |----|
7
口口①口 |①---|
口口口口 |----|
口口口口 |----|
口口口口 |----|
8
②口口① |①---|
④口口③ |②---|
口口口口 |③---|
口口口口 |④---|
9
口口口口 |①---|
口口口口 |----|
口口口① |----|
口口口口 |----|
10
口口口口 |①---|
②口口② |②---|
口③③口 |----|
①口口① |③---|
11
口口口口 |①---|
口口口口 |----|
口口口口 |----|
口①①口 |----|
12
口口口口 |①---|
口口口口 |②---|
③口口④ |③---|
①口口② |④---|
13
口口口口 |①---|
①口口口 |----|
口口口口 |----|
口口口口 |----|
14
④③②① |①---|
口口口口 |②---|
口口口口 |③---|
口口口口 |④---|
15
口口口口 |①---|
口①①口 |----|
口②②口 |②---|
口口口口 |----|
16
口口口口 |①---|
口口口口 |②---|
口口口口 |③---|
①②③④ |④---|
17
口口口口 |①---|
②口口② |----|
①口口① |②---|
口口口口 |----|
18
④③②① |①---|
口口口口 |②---|
口口口口 |③---|
口口口口 |④---|
19
口口口口 |①---|
口①①口 |----|
口②②口 |②---|
口口口口 |----|
20
口口口口 |①---|
口口口口 |②---|
口口口口 |③---|
①②③④ |④---|
21
口口口口 |①---|
②口口② |----|
①口口① |②---|
口口口口 |----|
22
②口口② |①---|
口口口口 |----|
口①①口 |②---|
口口口口 |----|
23
口①口口 |①---|
口②口口 |②---|
口③口口 |③---|
口④口口 |④---|
24
口口口口 |①---|
①口口① |----|
①口口① |----|
口口口口 |----|
25
口口口口 |①---|
口①②口 |②---|
口③④口 |③---|
口口口口 |④---|
26
口口口口 |①---|
②口口② |----|
口口口口 |②---|
①口口① |----|
27
口口①口 |①---|
口口②口 |②---|
口口③口 |③---|
口口④口 |④---|
28
④口口④ |①---|
②口口② |②---|
③口口③ |③---|
①口口① |④---|
29
口②②口 |①---|
口④④口 |②---|
口①①口 |③---|
口③③口 |④---|
30
②口口② |①---|
口口口口 |----|
口①①口 |②---|
口口口口 |----|
31
口①口口 |①---|
口②口口 |②---|
口③口口 |③---|
口④口口 |④---|
32
口口口口 |①---|
①口口① |----|
①口口① |----|
口口口口 |----|
33
口口口口 |①---|
口①②口 |②---|
口③④口 |③---|
口口口口 |④---|
34
口口口口 |①---|
②口口② |----|
口口口口 |②---|
①口口① |----|
35
口口①口 |①---|
口口②口 |②---|
口口③口 |③---|
口口④口 |④---|
36
④口口④ |①---|
②口口② |②---|
③口口③ |③---|
①口口① |④---|
37
口②②口 |①---|
口④④口 |②---|
口①①口 |③---|
口③③口 |④---|
38
口口口口 |①---|
①口口② |----|
①口口② |②---|
口口口口 |----|
39
口①②口 |①---|
口①②口 |----|
口口口口 |②---|
口口口口 |----|
40
口口口口 |①---|
口口口口 |----|
①口口② |②---|
①口口② |----|
41
口口口口 |①---|
口③④口 |②---|
口①②口 |③---|
口口口口 |④---|
42
口口口口 |①---|
①口口② |----|
①口口② |②---|
口口口口 |----|
43
口①②口 |①---|
口①②口 |----|
口口口口 |②---|
口口口口 |----|
44
口口口口 |①---|
口口口口 |----|
口①②口 |②---|
口①②口 |----|
45
口口口口 |①---|
口口口口 |----|
①口口② |②---|
①口口② |----|
46
②口口② |①---|
口口口口 |----|
口①①口 |----|
口口口口 |②---|
47
口②②口 |①---|
口口口口 |----|
口口口口 |----|
①口口① |②---|
48
口口口口 |①---|
口口口口 |----|
②口口③ |②---|
口①①口 |③---|
49
③口口④ |①---|
①口口② |②---|
口口口口 |③---|
口口口口 |④---|
50
口①①口 |①---|
口口口口 |----|
口口口口 |----|
口口口口 |----|
51
口口口口 |----|
口口口口 |----|
口口口口 |----|
口口口口 |----|
52
口口口口 |----|
口口口口 |----|
口口口口 |----|
口口口口 |----|
53
口口口口 |----|
口口口口 |----|
口口口口 |----|
口口口口 |----|
54
口口口口 |①---|
口口③口 |--②-|
口②口口 |----|
口口口① |③---|
55
①③口② |--①-|
口口口口 |----|
口口口口 |②---|
口口口口 |③---|
56
口口口口 |①---|
口口口③ |--②-|
口②口① |----|
口口口口 |③---|
57
口①①口 |①---|
口②②口 |②---|
口③③口 |③---|
口④④口 |④---|
58
口口口口 |①---|
①口口② |----|
口口口口 |②---|
口口口口 |----|
59
①口口① |①---|
口口口口 |----|
②②口口 |②---|
口口口口 |----|
60
口口口口 |①---|
口口口口 |----|
口口口口 |----|
口口①① |----|
61
口口口口 |①---|
①口口① |----|
口口口口 |②---|
②口口② |----|
62
口②口口 |①---|
口④③口 |②---|
口①①口 |③---|
口口口口 |④---|
63
口口口口 |①---|
口口口口 |②---|
②口口① |③---|
口③③口 |----|
64
口口口口 |①---|
口①①口 |----|
口②②口 |②---|
口口口口 |----|
65
①口口① |①---|
口②③口 |----|
口口口口 |②---|
口口口口 |③---|
66
口口口口 |①---|
口口口口 |②---|
①②③① |③---|
口④口口 |④---|
67
口口口口 |①---|
口口口口 |②---|
口④④口 |③---|
②口①③ |④---|
68
口②③口 |①---|
①④口① |②---|
口口口口 |③---|
口口口口 |④---|
69
口口口口 |①---|
口口①口 |②---|
②口口③ |③---|
口④④口 |④---|
70
口口口口 |①---|
口口口口 |②---|
④①①口 |③---|
②口口③ |④---|
71
口口口口 |①---|
②③③口 |②---|
口口口① |③---|
口口口口 |----|
72
①口口① |①---|
②口口② |----|
口口口口 |②---|
口口口口 |----|
73
口口口口 |①---|
口口口口 |----|
①口口① |②---|
②口口② |----|
74
①①口口 |①---|
口②②口 |--②-|
③口口口 |----|
口口口口 |③---|
75
口口口口 |①---|
口口口口 |②---|
口口口① |③---|
②④口③ |④---|
76
口口①① |①---|
口②②口 |--②-|
口口口口 |----|
口口口口 |----|
77
口口口口 |①---|
口口口口 |②---|
①口口② |③---|
③口口④ |④---|
78
①①口口 |①---|
口②②口 |--②-|
口口口口 |----|
口口口口 |----|
79
口口口口 |①---|
口口口口 |②---|
②口口① |③---|
④口口③ |④---|
80
口口①① |①---|
口②②口 |--②-|
口口口口 |----|
口口口口 |----|
81
口口口口 |①---|
口口口口 |②---|
①口口② |③---|
③口口④ |④---|
82
口口口口 |①---|
口①①口 |----|
口①①口 |----|
口口口口 |----|
83
①口口② |①---|
口口口口 |----|
口口口口 |②---|
口口口口 |----|
84
口口口口 |①---|
口①①口 |----|
口①①口 |----|
口口口口 |----|
85
口口口口 |①---|
口口口口 |----|
口口口口 |②---|
①口口② |----|
86
口口口口 |①---|
②①①② |----|
②①①② |----|
口口口口 |②---|


不確定度: 0

最終更新:2013年10月01日 21:08