Empathetic
Sota÷Des

ADVANCED

Level: 8
BPM: 180
Notes: 556

1
口口口口 |----|
口口口口 |----|
口口口口 |----|
口口口口 |----|
2
④①①④ |①---|
②口口③ |--②-|
②口口③ |③---|
口口口口 |④---|
3
口口口口 |①---|
口口口口 |----|
口口②口 |----|
①口口① |--②-|
4
口①①口 |①---|
口口口口 |--②-|
口口口口
口②②口

⑤⑥⑦⑧
③口口④
③口口④ |③-④-|
口口口口 |⑤⑥⑦⑧|
5
口口口② |①---|
口口口口 |----|
口①①口 |----|
口口口口 |②---|
6
②②②④ |①---|
③③口口 |②---|
口口口口 |--③-|
口口口① |④---|
7
③口③⑥ |①-②-|
口口口② |③-④-|
①①口④ |⑤---|
⑤口口口 |⑥---|
8
口口②口 |①---|
③③口口 |②-③-|
①①口口
口口口口

④⑤口⑤
口口口口
⑥口口口 |--④-|
口口口口 |⑤-⑥-|
9
口口①② |----|
口口口口 |①---|
口口口口 |----|
口口口口 |②---|
10
口②②③ |①---|
口口口口 |②---|
③口口口 |----|
口①①口 |③---|
11
口口②③ |①---|
①①口口 |②---|
口口口口 |----|
口口口口 |③---|
12
④口②④ |①---|
③口口口 |②---|
②口口口 |③---|
①口口口 |④---|
13
口①②④ |①---|
口②口口 |②---|
口③口口 |③---|
口④口口 |④---|
14
⑤⑤口口 |①-②-|
口口⑥⑥ |③-④-|
①⑦口② |⑤---|
③口口④ |⑥-⑦-|
15
口④口① |--①-|
②口⑤口 |②-③-|
口⑥口③ |④-⑤-|
口口⑦口 |⑥-⑦-|
16
⑦口口⑧ |①-②-|
⑤口口⑥ |③-④-|
③口口④ |⑤-⑥-|
①口口② |⑦-⑧-|
17
⑥②④⑧ |①-②-|
口口口口 |③-④-|
口口口口 |⑤-⑥-|
⑤①③⑦ |⑦-⑧-|
18
⑤⑤口口 |①-②-|
①②③④ |③-④-|
口⑦口口 |⑤---|
口口⑥⑥ |⑥-⑦-|
19
口④①口 |--①-|
②口⑤口 |②-③-|
口⑥口③ |④-⑤-|
口口⑦口 |⑥-⑦-|
20
口③③④ |①-②-|
⑤口口口 |--③-|
口口口⑥ |--④-|
①口口② |⑤-⑥-|
21
①口口口 |①---|
口口口② |②---|
③口口口 |③---|
口口口④ |④---|
22
口口口② |①---|
口口口口 |--②-|
口口口③ |③---|
①①口口 |----|
23
⑬⑫⑪⑩ |①②③④|
①②③④ |⑤⑥⑦⑧|
⑤⑥⑦⑧ |--⑨-|
⑨口口口 |⑩⑪⑫⑬|
24
口口口口 |①---|
口口口口 |----|
口口口口 |----|
口口口① |----|
25
③口口③ |①---|
①口口① |--②-|
口口口口 |--③-|
口②②口 |----|
26
③口口② |①---|
⑦⑥⑤④ |----|
①口口口 |②-③-|
①口口口 |④⑤⑥⑦|
27
口口口口 |①-②-|
口口口口 |③-④-|
④⑥②⑧ |⑤-⑥-|
⑤③⑦① |⑦-⑧-|
28
①②③④ |①②③④|
口⑦⑥口 |⑤-⑥⑦|
⑤口口口 |-⑧⑨⑩|
⑪⑩⑨⑧ |⑪---|
29
③①③① |①-②-|
⑦口口⑥ |③-④-|
④②④② |--⑤-|
⑤口口口 |⑥-⑦-|
30
②口口口 |①---|
口口口口 |--②-|
③口口口 |③---|
口口①① |----|
31
口口⑤① |①-②-|
⑥②口口 |③-④-|
口口⑦③ |⑤-⑥-|
⑧④口口 |⑦-⑧-|
32
⑤⑥口口 |①-②-|
口口⑦⑧ |③-④-|
④③口口 |⑤-⑥-|
口口②① |⑦-⑧-|
33
口⑥⑧④ |①-②-|
②口口口 |③-④-|
口⑤⑦③ |⑤-⑥-|
①口口口 |⑦-⑧-|
34
口④③② |①---|
口④③② |----|
口口口口 |②--③|
口①①口 |--④-|
35
③⑥⑥④ |①--②|
③口口④ |--③-|
①口口② |-④--|
①⑤⑤② |⑤-⑥-|
36
口口口口 |----|
口②①口 |①---|
口口③口 |②---|
口口口口 |③---|
37
①⑥⑤① |①-②-|
②口口② |③-④-|
③口口③ |⑤--⑥|
④⑤⑥④ |----|
38
⑧⑦⑥⑤ |①②③④|
①②③④ |----|
口口口口 |⑤⑥⑦⑧|
口口口口 |----|
39
口口口口 |①②③④|
口口口口 |----|
⑧⑦⑥⑤ |⑤⑥⑦⑧|
①②③④ |----|
40
口口口口 |①②③④|
⑧⑦⑥⑤ |----|
口口口口 |⑤⑥⑦⑧|
①②③④ |----|
41
③口口④ |①---|
口⑤⑤口 |②-③-|
③口口④ |--④-|
①①②② |⑤---|
42
口②①口 |①---|
②口口① |--②-|
口口③口 |----|
口口口③ |③---|
43
口口口口 |①---|
口②②口 |--②-|
②①口② |----|
①口口口 |----|
44
②口⑤① |①-②-|
⑥口口口 |③-④-|
口口口⑧ |⑤-⑥-|
③⑦口④ |⑦-⑧-|
45
⑤①口⑤ |①-②-|
口口口④ |③-④-|
②⑥⑥口 |⑤---|
口口③口 |⑥---|
46
②①①口 |①---|
②①①③ |----|
口④口③ |--②-|
口④口口 |③-④-|
47
口口④口 |①---|
③口④口 |----|
③口①② |--②-|
口口①② |③-④-|
48
口①口口 |①---|
口①口口 |--②-|
口口口口
②②口口

④口口③
④⑥⑤③
口⑥⑤口 |③-④-|
口口口口 |⑤-⑥-|
49
口①①口 |--①-|
口口口口 |----|
③口口② |----|
口口口口 |②-③-|
50
口口口口 |①---|
①③②① |--②-|
口口口口 |----|
口①①口 |③---|
51
①③②口 |--①-|
口口口口 |----|
口口口口 |②---|
口口口口 |③---|
52
口口口口 |①---|
口口口口 |--②-|
①②③口 |----|
口口口口 |③---|
53
口口口口 |--①-|
口口口① |----|
口口口口 |②---|
口②③口 |③---|
54
口口口口 |①---|
口口口口 |--②-|
①②③口 |----|
口口口口 |③---|
55
③口口口 |--①-|
口口②① |----|
口口口口 |②---|
口口口口 |③---|
56
口③②① |①---|
口口口口 |--②-|
口口口口 |----|
口口口口 |③---|
57
③口口③ |①-②-|
①⑤⑤② |--③-|
①口口② |④---|
⑤④④⑤ |⑤---|
58
口①①口 |①---|
②口口口 |②---|
口①①口
口口口口

口口口口
口口口③
④口⑥⑤ |③---|
口口口口 |④-⑤⑥|
59
口口口口 |①---|
口口口口 |②---|
口①口口 |③---|
口③③② |----|
60
①口口① |①---|
口②③口 |②---|
口④口口 |③---|
口口口口 |④---|
61
口①①口 |①---|
口口口口 |----|
②口口② |②---|
口口口口 |----|
62
口口口口 |①---|
口①①口 |②---|
口口口口 |③---|
②④口③ |④---|
63
口③③口 |①---|
口口口口 |②---|
口②口口 |③---|
口口①口 |----|
64
口口口口 |①---|
①①口口 |----|
口②②口 |②---|
口口口口 |----|
65
口口口口 |①---|
口口⑤口 |②---|
口④口③ |③---|
②口①① |④-⑤-|
66
②①口③ |①---|
口口口口 |②---|
④口口口 |③---|
口口⑥⑤ |④-⑤⑥|
67
口口口口 |①---|
③⑤口② |②---|
口口④口 |③---|
口①口口 |④-⑤-|
68
口口①口 |①---|
口口口口 |②---|
②口口③ |③---|
④口口口 |④---|
69
口口口口 |①---|
⑤口口口 |②---|
口②③④ |③---|
口口口① |④-⑤-|
70
口口②① |①---|
口③口口 |②---|
口口④口 |③---|
口口口口 |④---|
71
口口口口 |①---|
③口口③ |②---|
口口口口 |③---|
口①②口 |----|
72
①口口① |①---|
口②②口 |----|
口口口口 |②---|
口口口口 |----|
73
口口口口 |①---|
口口口口 |----|
口①①口 |②---|
口②②口 |----|
74
①口口① |①---|
口③④口 |--②-|
②口口② |----|
口口口口 |③-④-|
75
②①①② |--①-|
口③口口 |----|
口口④口 |②-③-|
口⑤口口 |④-⑤-|
76
口①①口 |①---|
③口口④ |--②-|
口口口口 |----|
②口口② |③-④-|
77
口④口口 |--①-|
口口③口 |②-③-|
口②口口 |④---|
口口①口 |----|
78
③口①④ |①---|
口①口口 |--②-|
口②口口 |----|
口口②口 |③-④-|
79
口口④口 |--①-|
⑤③口口 |②-③-|
口口②⑥ |④-⑤-|
⑦①口口 |⑥-⑦-|
80
口口口口 |①---|
口④⑤口 |②-③-|
口②③口 |----|
口口口① |④-⑤-|
81
口口口① |--①-|
②口口口 |②-③-|
口口口③ |④-⑤-|
④口⑤口 |----|
82
口①①口 |①---|
口②②口 |②---|
口③③口 |③---|
口④④口 |④---|
83
④①①④ |①---|
②口口③ |--②-|
②口口③ |③---|
口口口口 |④---|
84
口口口口 |①---|
口口口口 |----|
口口②口 |----|
①口口① |--②-|
85
口①①口 |①---|
口口口口 |--②-|
口口口口
口②②口

⑤⑥⑦⑧
③口口④
③口口④ |③-④-|
口口口口 |⑤⑥⑦⑧|
86
口口口口 |①---|
⑦⑥⑥⑦ |--②③|
⑦①①⑦ |④⑤⑥-|
⑤④③② |⑦---|


不確定度: 0

最終更新:2013年10月01日 21:08