虹色の花
Akhuta y OJ

BASIC

Level: 4
BPM: 170
Notes: 344

1
口口口口 |----|
口口口口 |----|
口口口口 |----|
口口口口 |----|
2
口口口口 |①---|
①②③口 |②---|
口口口④ |③---|
口口口口 |--④-|
3
口口口口 |--①-|
口口口口 |--②-|
口②①口 |----|
口口口口 |----|
4
口口口口 |①---|
口①①口 |--②-|
口②②口 |----|
口口口口 |----|
5
口口口口 |①---|
①口口① |----|
①口口① |----|
口口口口 |----|
6
口口口口 |①---|
口②②口 |--②-|
口①①口 |----|
口口口口 |----|
7
口口口口 |①---|
口④③口 |②---|
口②①口 |③---|
口口口口 |④---|
8
①口口① |①---|
②口口② |--②-|
口口口口 |----|
口口口口 |----|
9
口③③口 |①---|
口②②口 |--②-|
口①①口 |----|
口口口口 |③---|
10
①口口① |①---|
②口口② |--②-|
③口口③ |----|
口口口口 |③---|
11
口③③口 |①---|
口②②口 |--②-|
口①①口 |----|
口口口口 |③---|
12
口口口口 |①---|
①口口① |----|
①口口① |----|
口口口口 |----|
13
口口口口 |----|
口口口口 |----|
口口口口 |----|
口口口口 |----|
14
口口口口 |①---|
①口口① |----|
口口口口 |----|
口口口口 |----|
15
口口口口 |①---|
口口口口 |----|
①口口① |----|
口口口口 |----|
16
口口口口 |①---|
口①①口 |----|
口①①口 |----|
口口口口 |----|
17
口口口口 |----|
口口口口 |①---|
口口口口 |②---|
①②③口 |③---|
18
口口口口 |①---|
口①①口 |----|
口①①口 |----|
口口口口 |----|
19
口口口口 |①---|
①口口① |----|
①口口① |----|
口口口口 |----|
20
口口口口 |①---|
①口口① |----|
①口口① |----|
口口口口 |----|
21
口口口口 |----|
口口口口 |----|
口口口口 |----|
口口口口 |----|
22
口口口口 |①---|
①口口① |----|
口口口口 |----|
口口口口 |----|
23
口口口口 |①---|
口口口口 |----|
①口口① |----|
口口口口 |----|
24
口口口口 |①---|
口①①口 |----|
口①①口 |----|
口口口口 |----|
25
口口口口 |----|
口口口口 |①---|
口口口口 |②---|
口③②① |③---|
26
口口口口 |①---|
口①①口 |----|
口①①口 |----|
口口口口 |----|
27
口口口口 |①---|
①口口① |----|
①口口① |----|
口口口口 |----|
28
口口口口 |----|
口口口口 |----|
口口口口 |----|
口口口口 |----|
29
口口④口 |①---|
口口③口 |②---|
口口②口 |③---|
口①口口 |④---|
30
口①口口 |①---|
口②口口 |②---|
口③口口 |③---|
口④口口 |④---|
31
口④口口 |①---|
口③口口 |②---|
口②口口 |③---|
口口①口 |④---|
32
口口①口 |①---|
口口②口 |②---|
口口③口 |③---|
口口④口 |④---|
33
口口口④ |①---|
口口口③ |②---|
口口口② |③---|
①口口口 |④---|
34
①口口口 |①---|
②口口口 |②---|
③口口口 |③---|
④口口口 |④---|
35
口口口口 |①---|
口口③口 |--②-|
口②口口 |----|
口口①口 |③---|
36
口①口口 |①---|
口口口口 |--②-|
口②②口 |----|
口口口口 |----|
37
口口④口 |①---|
口口③口 |②---|
口口②口 |③---|
口①口口 |④---|
38
口①口口 |①---|
口②口口 |②---|
口③口口 |③---|
口④口口 |④---|
39
口④口口 |①---|
口③口口 |②---|
口②口口 |③---|
口口①口 |④---|
40
口口①口 |①---|
口口②口 |②---|
口口③口 |③---|
口口④口 |④---|
41
④口口④ |①---|
③口口③ |②---|
②口口② |③---|
①口口① |④---|
42
口①①口 |①---|
口②②口 |②---|
口③③口 |③---|
口④④口 |④---|
43
口口口口 |①---|
口③③口 |--②-|
口②②口 |----|
①口口① |③---|
44
①②②① |①---|
③口口③ |--②-|
口口口口 |----|
口口口口 |③---|
45
口口口口 |----|
口①①口 |----|
口①①口 |①---|
口口口口 |----|
46
口口口口 |①---|
①②②① |----|
①②②① |②---|
口口口口 |----|
47
口口口口 |①---|
①③③① |②---|
②③③② |③---|
口口口口 |----|
48
口③③口 |①---|
①②②① |----|
①②②① |②---|
口口口口 |--③-|
49
口口口口 |----|
口①①口 |----|
口①①口 |①---|
口口口口 |----|
50
口口口口 |①---|
①②②① |----|
①②②① |②---|
口口口口 |----|
51
口口口口 |①---|
①③③① |②---|
②③③② |③---|
口口口口 |----|
52
口口口口 |①---|
①口口① |----|
②口口② |②---|
口口口口 |----|
53
②①①② |①---|
口③③口 |②---|
口③③口 |③---|
口口口口 |----|
54
口口口口 |①---|
①②②① |----|
①②②① |②---|
口口口口 |----|
55
口口口口 |①---|
①③③① |②---|
②③③② |③---|
口口口口 |----|
56
口③③口 |①---|
①②②① |----|
①②②① |②---|
口口口口 |--③-|
57
口口口口 |----|
口①①口 |----|
口①①口 |①---|
口口口口 |----|
58
口口口口 |①---|
①②②① |----|
①②②① |②---|
口口口口 |----|
59
口口口口 |①---|
①③③① |②---|
②③③② |③---|
口④④口 |--④-|
60
①①①① |----|
口②②口 |----|
口口口口 |①---|
口口口口 |--②-|
61
口口口口 |----|
②③口口 |①---|
口①①口 |②---|
口口口口 |③---|
62
口口口口 |①---|
口口①口 |--②-|
口④③② |--③-|
口口口口 |--④-|
63
口口口口 |----|
①口口① |----|
①口口① |①---|
口口口口 |----|
64
①①①① |----|
口②②口 |----|
口口口口 |①---|
口口口口 |--②-|
65
口口口口 |----|
②口口② |①---|
②①①② |②---|
口口口口 |----|
66
口口口口 |----|
口口口口 |----|
口口口口 |----|
口口口口 |----|
67
口口口口 |----|
口口口口 |----|
口②口口 |①---|
口口①口 |②---|
68
口②③口 |①---|
口④①口 |②---|
口口口口 |③---|
口口口口 |④---|
69
口口口口 |①---|
口口口口 |②---|
③口①③ |③---|
口②口口 |----|
70
②口口② |①---|
①口口① |----|
口口口口 |②---|
口口口口 |----|
71
口①①口 |①---|
口口口口 |----|
口③口口 |②---|
口口②口 |③---|
72
口②③口 |①---|
口④①口 |②---|
口口口口 |③---|
口口口口 |④---|
73
口口口口 |①---|
③口口③ |②---|
③口①③ |③---|
口②口口 |----|
74
口口口口 |----|
①口口① |----|
①口口① |①---|
口口口口 |----|
75
口口口口 |----|
①②口口 |----|
口口口口 |①---|
口口口口 |②---|
76
口口口口 |①---|
口口①口 |--②-|
口④③② |--③-|
口口口口 |--④-|
77
口口口口 |----|
口①①口 |①---|
口口口口 |----|
口口口口 |----|


不確定度: 0

最終更新:2013年10月01日 21:07