Elemental Creation
dj TAKA meets DJ YOSHITAKA

BASIC

Level: 5
BPM: 212
Notes: 498

1
口口口口 |----|
口口口口 |----|
口口口口 |----|
口口口口 |----|
2
口口口口 |①---|
①口②口 |----|
①口②口 |②---|
口口口口 |----|
3
口①口口 |①---|
口②口口 |②---|
口③口口 |③---|
口④口口 |④---|
4
口口口口 |----|
口②口① |①---|
口②口① |②---|
口口口口 |----|
5
口口①口 |①---|
口口②口 |②---|
口口③口 |③---|
口口④口 |④---|
6
①①口口 |①---|
口口口口 |----|
口口口口 |----|
口口口口 |----|
7
口口口口 |①---|
口口口口 |----|
口口口口 |----|
口口①① |----|
8
①口口① |①---|
口②②口 |----|
口口口口 |②---|
口口口口 |----|
9
口①①口 |①---|
②口口② |②---|
③口口③ |③---|
口④④口 |④---|
10
②口口④ |①---|
口口口口 |②---|
口口口口 |③---|
①口口③ |④---|
11
口口口口 |①---|
口①②口 |②---|
口③④口 |③---|
口口口口 |④---|
12
口②④口 |①---|
口口口口 |②---|
口口口口 |③---|
口①③口 |④---|
13
口口口口 |①---|
①③③② |②---|
口④④口 |③---|
口口口口 |④---|
14
④口口口 |①---|
③口口口 |②---|
②口口口 |③---|
口①口口 |④---|
15
口口口④ |①---|
口口口③ |②---|
口口口② |③---|
口口①口 |④---|
16
口①①口 |①---|
口②②口 |②---|
口③③口 |③---|
口④④口 |④---|
17
口④④口 |①---|
口③③口 |②---|
②口口② |③---|
①口口① |④---|
18
②口口④ |①---|
口口口口 |②---|
口口口口 |③---|
①口口③ |④---|
19
口口口口 |①---|
口①②口 |②---|
口③④口 |③---|
口口口口 |④---|
20
口②④口 |①---|
口口口口 |②---|
口口口口 |③---|
口①③口 |④---|
21
口口口口 |①---|
①③③② |②---|
口④④口 |③---|
口口口口 |④---|
22
④口口口 |①---|
③口口口 |②---|
②口口口 |③---|
口①口口 |④---|
23
口口口④ |①---|
口口口③ |②---|
口口口② |③---|
口口①口 |④---|
24
口①①口 |①---|
口②②口 |②---|
口③③口 |③---|
口④④口 |④---|
25
①口口① |①---|
②口口② |②---|
③口口③ |③---|
④口口④ |④---|
26
①口口口 |①---|
口②口口 |②---|
口口③口 |③---|
口口口④ |④---|
27
口口口① |①---|
口口②口 |②---|
口③口口 |③---|
④口口口 |④---|
28
口④④口 |①---|
③口口③ |②---|
②口口② |③---|
口①①口 |④---|
29
①口口① |①---|
口②②口 |②---|
口③③口 |③---|
④口口④ |④---|
30
口①口口 |①---|
②口口口 |②---|
③口口口 |③---|
口④口口 |④---|
31
口口①口 |①---|
口口口② |②---|
口口口③ |③---|
口口④口 |④---|
32
④口口④ |①---|
口③③口 |②---|
口②②口 |③---|
①口口① |④---|
33
口④④口 |①---|
①口口② |②---|
①口口② |③---|
口③③口 |④---|
34
②口口④ |①---|
口口口口 |②---|
口口口口 |③---|
①口口③ |④---|
35
口口口口 |①---|
口①②口 |②---|
口③④口 |③---|
口口口口 |④---|
36
口②④口 |①---|
口口口口 |②---|
口口口口 |③---|
口①③口 |④---|
37
口口口口 |①---|
①③③② |②---|
口④④口 |③---|
口口口口 |④---|
38
④口口口 |①---|
③口口口 |②---|
②口口口 |③---|
口①口口 |④---|
39
口口口④ |①---|
口口口③ |②---|
口口口② |③---|
口口①口 |④---|
40
口①①口 |①---|
口②②口 |②---|
口③③口 |③---|
口④④口 |④---|
41
口④④口 |①---|
口③③口 |②---|
②口口② |③---|
①口口① |④---|
42
②口口④ |①---|
口口口口 |②---|
口口口口 |③---|
①口口③ |④---|
43
口口口口 |①---|
口①②口 |②---|
口③④口 |③---|
口口口口 |④---|
44
口②④口 |①---|
口口口口 |②---|
口口口口 |③---|
口①③口 |④---|
45
口口口口 |①---|
①③③② |②---|
口④④口 |③---|
口口口口 |④---|
46
④口口口 |①---|
③口口口 |②---|
②口口口 |③---|
口①口口 |④---|
47
口口口④ |①---|
口口口③ |②---|
口口口② |③---|
口口①口 |④---|
48
口①①口 |①---|
口②②口 |②---|
口③③口 |③---|
口④④口 |④---|
49
①口口① |①---|
②口口② |②---|
③口口③ |③---|
④口口④ |④---|
50
口口口口 |①---|
口①①口 |----|
口①①口 |----|
口口口口 |----|
51
口口口口 |----|
口口口口 |----|
口口口口 |----|
口口口口 |----|
52
口口口口 |----|
口口口口 |----|
口口口口 |----|
口口口口 |----|
53
口口口口 |----|
口口口口 |----|
口口口口 |----|
口口口口 |----|
54
①口口口 |①---|
口口口口 |----|
口口口口 |----|
口口口口 |----|
55
口口口口 |----|
口口口口 |----|
口口口口 |----|
口口口口 |----|
56
口口口口 |----|
口口口口 |----|
口口口口 |----|
口口口口 |----|
57
口口口口 |----|
口口口口 |----|
口口口口 |----|
口口口口 |----|
58
①口口① |①---|
口口口口 |----|
口口口口 |----|
口口口口 |----|
59
口口口口 |①---|
口口口口 |----|
口①①口 |----|
口口口口 |----|
60
口口口口 |①---|
口①①口 |----|
口口口口 |----|
口口口口 |----|
61
口口口口 |①---|
口口口口 |----|
口口口口 |----|
①口口① |----|
62
口口口口 |①---|
口口口口 |----|
口口口口 |----|
口①①口 |----|
63
口口口口 |①---|
①口口① |----|
口口口口 |----|
口口口口 |----|
64
①口口① |①---|
口口口口 |----|
口口口口 |----|
口口口口 |----|
65
口口口口 |①---|
口①①口 |----|
口口口口 |----|
口口口口 |----|
66
口口口口 |①---|
口口口口 |②---|
③①①④ |③---|
口口口② |④---|
67
③口口④ |①---|
①口口② |②---|
口口口口 |③---|
口口口口 |④---|
68
口口口口 |①---|
口口口口 |②---|
口③④口 |③---|
口①②口 |④---|
69
口③④口 |①---|
口①②口 |②---|
口口口口 |③---|
口口口口 |④---|
70
口口口口 |①---|
口口口口 |②---|
口③④口 |③---|
①口口② |④---|
71
口③④口 |①---|
①口口② |②---|
口口口口 |③---|
口口口口 |④---|
72
口口口口 |①---|
口口口口 |②---|
③口口④ |③---|
口①②口 |④---|
73
③口口④ |①---|
口①②口 |②---|
口口口口 |③---|
口口口口 |④---|
74
口①①口 |①-②-|
口口口口 |----|
口②②口 |----|
口口口口 |----|
75
口口口口 |①-②-|
口①①口 |----|
口口口口 |----|
口②②口 |----|
76
①口口① |①-②-|
口口口口 |----|
②口口② |----|
口口口口 |----|
77
口口口口 |①-②-|
①③④① |----|
口口口口 |③---|
②口口② |④---|
78
口口②② |①---|
口口④④ |②---|
口③口口 |③---|
口①口口 |④---|
79
口③口口 |①---|
口①口口 |②---|
口口②② |③---|
口口④④ |④---|
80
①口口① |①---|
口口口口 |----|
口口口口 |----|
口口口口 |----|
81
口口口口 |①---|
①口口① |----|
①口口① |----|
口口口口 |----|
82
口口口口 |①---|
口①①口 |----|
口①①口 |----|
口口口口 |----|
83
①口口① |①---|
口口口口 |----|
口口口口 |②---|
②口口② |----|
84
口④④口 |①---|
口③③口 |②---|
口②②口 |③---|
口①①口 |④---|
85
②口口④ |①---|
口口口口 |②---|
口口口口 |③---|
①口口③ |④---|
86
口口口口 |①---|
口①②口 |②---|
口③④口 |③---|
口口口口 |④---|
87
口②④口 |①---|
口口口口 |②---|
口口口口 |③---|
口①③口 |④---|
88
口口口口 |①---|
①③③② |②---|
口④④口 |③---|
口口口口 |④---|
89
④口口口 |①---|
③口口口 |②---|
②口口口 |③---|
口①口口 |④---|
90
口口口④ |①---|
口口口③ |②---|
口口口② |③---|
口口①口 |④---|
91
口①①口 |①---|
口②②口 |②---|
口③③口 |③---|
口④④口 |④---|
92
口④④口 |①---|
口③③口 |②---|
②口口② |③---|
①口口① |④---|
93
②口口④ |①---|
口口口口 |②---|
口口口口 |③---|
①口口③ |④---|
94
口口口口 |①---|
口①②口 |②---|
口③④口 |③---|
口口口口 |④---|
95
口②④口 |①---|
口口口口 |②---|
口口口口 |③---|
口①③口 |④---|
96
口口口口 |①---|
①③③② |②---|
口④④口 |③---|
口口口口 |④---|
97
④口口口 |①---|
③口口口 |②---|
②口口口 |③---|
口①口口 |④---|
98
口口口④ |①---|
口口口③ |②---|
口口口② |③---|
口口①口 |④---|
99
口①①口 |①---|
口②②口 |②---|
口③③口 |③---|
口④④口 |④---|
100
①口口① |①---|
②口口② |②---|
③口口③ |③---|
④口口④ |④---|
101
①口口口 |①---|
口②口口 |②---|
口口③口 |③---|
口口口④ |④---|
102
口口口① |①---|
口口②口 |②---|
口③口口 |③---|
④口口口 |④---|
103
口④④口 |①---|
③口口③ |②---|
②口口② |③---|
口①①口 |④---|
104
①口口① |①---|
口②②口 |②---|
口③③口 |③---|
④口口④ |④---|
105
口①口口 |①---|
②口口口 |②---|
③口口口 |③---|
口④口口 |④---|
106
口口①口 |①---|
口口口② |②---|
口口口③ |③---|
口口④口 |④---|
107
④口口④ |①---|
口③③口 |②---|
口②②口 |③---|
①口口① |④---|
108
口④④口 |①---|
①口口② |②---|
①口口② |③---|
口③③口 |④---|
109
④口口④ |①---|
口①②口 |②---|
口①②口 |③---|
③口口③ |④---|
110
口口口口 |①---|
①口口① |----|
①口口① |----|
口口口口 |----|


不確定度: 0

最終更新:2013年10月01日 21:05