ツキミチヌ
CULTVOICE by S.S.D. PRODUCTS

EXTREME

Level: 8
BPM: 146
Notes: 583

1
口口口口 |----|
口口口口 |----|
口口口口 |----|
口口口口 |----|
2
口口口口 |①-②③|
口②口口 |④-⑤-|
①口③①
口④口⑤

⑥口口口
⑧口口⑦
口口⑨口 |⑥-⑦-|
口口口口 |⑧-⑨-|
3
口⑦⑧口 |①-②③|
⑦口②⑧ |④-⑤-|
⑤③口⑥ |⑥-⑦-|
①口④口 |⑧---|
4
口口口口 |①-②③|
口口②口 |④-⑤-|
③①①口
⑤口④口

⑦口口⑥
口口口⑧
⑨口口口 |⑥-⑦-|
口口口口 |⑧-⑨-|
5
⑤②③口 |①-②③|
口口口口 |④-⑤-|
口④④口
口①①口

口口口口
口⑥⑥口
⑧口口⑦ |⑥---|
口⑧⑦口 |⑦-⑧-|
6
②③③② |①---|
口④口口 |②---|
口①①⑤ |③-④⑤|
⑥口口口 |⑥---|
7
口口④口 |①--②|
口口口口 |③-④-|
口②③口
口①①口

口口口口
⑦口口口
⑤⑦口⑤ |⑤---|
口口⑥⑥ |⑥-⑦-|
8
口②②① |①---|
口口①口 |②---|
③⑤⑤③ |③---|
④口④口 |④-⑤-|
9
③口口② |①---|
口①口① |----|
口口口口 |--②-|
口口口口 |③---|
10
口口口⑧ |①--②|
①③②口 |③-④-|
口⑦⑥④ |⑤--⑥|
①⑤口口 |⑦-⑧-|
11
①口口口 |①--②|
口③②口 |③-④-|
口口口④
口口口口

⑧口⑤口
口口口口
⑥口口口 |⑤-⑥-|
口口⑦口 |⑦-⑧-|
12
⑧口口口 |①--②|
口②③① |③-④-|
口⑥⑦④ |⑤--⑥|
⑤口口① |⑦-⑧-|
13
口口口① |①--②|
⑥②③⑨ |③-④-|
口口口⑦ |⑤-⑥⑦|
④⑧口⑤ |⑧-⑨-|
14
①口口⑧ |①--②|
口③②口 |③-④-|
①⑦⑥④ |⑤--⑥|
口⑤口口 |⑦-⑧-|
15
①口⑤口 |①--②|
口③②口 |③-④-|
⑦⑦口④ |⑤---|
口口⑥⑥ |⑥-⑦-|
16
②口口② |①---|
口口①① |②---|
口④③口 |③---|
口③④口 |④---|
17
口③③口 |①---|
①口口① |②---|
口口口口 |③---|
②口口② |----|
18
①口口⑧ |①--②|
口③②口 |③-④-|
①⑦⑥④ |⑤--⑥|
口⑤口口 |⑦-⑧-|
19
①口⑤口 |①--②|
⑥③②口 |③-④-|
口⑨⑦④ |⑤-⑥⑦|
⑧口口口 |⑧-⑨-|
20
⑧口口口 |①--②|
口②③① |③-④-|
口⑥⑦④ |⑤--⑥|
⑤口口① |⑦-⑧-|
21
口口口① |①--②|
口②③口 |③-④-|
口口口口
④口口口

口⑥口⑨
口口口⑦
口⑧口口 |⑤-⑥⑦|
口口口⑤ |⑧-⑨-|
22
①口口⑧ |①--②|
口③②口 |③-④-|
①⑦⑥④ |⑤--⑥|
口⑤口口 |⑦-⑧-|
23
①口⑥口 |①--②|
⑦③②⑨ |③-④-|
口口⑧④ |⑤-⑥⑦|
⑤口口口 |⑧-⑨-|
24
②口口② |①---|
口①①口 |②---|
口④③口 |③---|
口③④口 |④---|
25
⑥②口口 |①-②③|
口口③口 |④-⑤-|
口口口⑤ |⑥---|
①④口① |----|
26
②③口口 |①--②|
⑧⑤口口 |③-④-|
⑥⑦口口 |⑤--⑥|
④①①口 |⑦-⑧-|
27
②③口口 |①--②|
口⑥口口 |③-④-|
⑦⑤口口 |⑤-⑥-|
④①口口 |⑦---|
28
口口③② |①--②|
口口⑤⑧ |③-④-|
口口⑦⑥ |⑤--⑥|
口①①④ |⑦-⑧-|
29
口口③② |①--②|
⑥口⑤⑦ |③-④-|
口口口口 |⑤-⑥-|
口⑧①④ |⑦-⑧-|
30
①④口口 |①--②|
口⑥⑦口 |③-④-|
②③口口 |⑤-⑥-|
⑤口⑧口 |⑦-⑧-|
31
口口④① |①--②|
口⑦⑥口 |③-④-|
口口③② |⑤-⑥-|
口口口⑤ |⑦---|
32
②④口口 |①--②|
口口口口 |③-④-|
口③口口
口①①口

⑧口口口
口口口口
⑥口口口 |⑤--⑥|
⑤⑦口口 |⑦-⑧-|
33
口口口① |--①②|
口口②④ |③-④-|
口口口③
口口口口

口口⑤口
口口⑧口
口口口口 |⑤--⑥|
口口⑦⑥ |⑦-⑧-|
34
⑤①②⑥ |---①|
③⑤⑥④ |②-③-|
③①②④ |④--⑤|
口⑦⑦口 |⑥-⑦-|
35
口②①口 |①---|
口口口口 |②---|
口①②口
①口口②

口口口③
④③③口
③口口口 |③---|
④口④口 |④---|
36
口②⑤口 |①-②③|
口口③① |④-⑤-|
口④口⑤
口①口①

口口口⑥
⑦⑨口口
口口口口 |--⑥⑦|
⑨口口⑧ |⑧-⑨-|
37
⑤①④口 |--①②|
口口⑥② |③-④-|
口⑦口④ |⑤-⑥⑦|
⑨③⑧口 |⑧-⑨-|
38
口⑤口口 |①-②③|
②口口口 |④-⑤-|
⑤口③口
口④口①

口口⑥口
口⑦⑧口
口口口⑥ |⑥-⑦⑧|
⑨口口⑩ |⑨-⑩-|
39
④②②③ |①---|
①口口② |②---|
口①①口 |③---|
③③④④ |④---|
40
口②③口 |①--②|
④①口① |③-④-|
①口①口
口口口口

⑧口口⑤
口⑥⑦口
口口口⑤ |⑤--⑥|
口口口口 |⑦-⑧-|
41
口②③口 |①--②|
④口口① |③-④-|
口口口口
口口口①

口口口⑤
口口口口
口口口⑤ |⑤-⑥-|
⑥口口⑦ |⑦---|
42
①口①⑤ |①--②|
口①口① |③-④-|
⑧②③⑤ |⑤--⑥|
④⑥⑦口 |⑦-⑧-|
43
⑥口口⑦ |①--②|
口口⑤① |③-④-|
口②③口 |⑤-⑥-|
④口⑤① |⑦---|
44
⑧④③口 |①-②-|
②⑥⑦⑤ |③-④-|
口①①口 |⑤--⑥|
口口口口 |⑦-⑧-|
45
口口口口 |---①|
口口口口 |②-③-|
③⑤⑥④ |④--⑤|
⑦①②口 |⑥-⑦-|
46
①③②口 |----|
口口口口 |①---|
口口口口 |②---|
口②③① |③---|
47
口口口① |①--②|
④②③口 |③-④-|
口②③口
①口口口

⑥口口⑦
口口口⑤
口口口口 |⑤-⑥-|
⑧口口口 |⑦-⑧-|
48
⑧②③⑤ |①--②|
④⑥⑦口 |③-④-|
①口①⑤ |⑤--⑥|
口①口① |⑦-⑧-|
49
口②③口 |①--②|
④口口① |③-④-|
口口口口
口口口①

口口口⑤
口口口口
口口口⑤ |⑤-⑥-|
⑥口口⑦ |⑦---|
50
①口①口 |①-②-|
口①口① |③-④-|
②口③口
④口口口

口口口⑤
口口口口
⑧口口⑤ |⑤--⑥|
口⑥⑦口 |⑦-⑧-|
51
⑥口口⑦ |①--②|
⑧口⑤① |③-④-|
口②③口 |⑤-⑥-|
④口⑤① |⑦-⑧-|
52
④④①口 |①--②|
⑥②③⑦ |③-④-|
⑧口口口 |⑤-⑥-|
口口⑤⑤ |⑦-⑧-|
53
口口⑤口 |①--②|
口⑥⑦⑤ |③-④-|
口④口① |⑤-⑥-|
④②③口 |⑦---|
54
④口口④ |①--②|
口口口口 |③-④-|
①②③①
口②③口

口口口口
⑥⑤⑤⑥
⑧口口⑧ |⑤--⑥|
⑦口口⑦ |⑦-⑧-|
55
②口口② |①---|
④口口④ |②---|
口③③口 |③---|
口①①口 |④---|
56
口①①口 |①-②③|
口②口口 |④-⑤-|
①口③①
口④口⑤

⑥口口口
⑧口口⑦
口口⑨口 |⑥-⑦-|
口口口口 |⑧-⑨-|
57
口⑦⑧口 |①-②③|
⑦口②⑧ |④-⑤-|
⑤③口⑥ |⑥-⑦-|
①口④口 |⑧---|
58
口口口口 |①-②③|
口口②口 |④-⑤-|
③①①口
⑤口④口

⑦口口⑥
口口口⑧
⑨口口口 |⑥-⑦-|
口口口口 |⑧-⑨-|
59
口口口口 |①---|
口口口口 |----|
口口口口
口①①口

口口口口
口口口口
③口口② |----|
口③②口 |②-③-|
60
②③③② |①---|
口④口口 |②---|
口①①⑤ |③-④⑤|
⑥口口口 |⑥---|
61
口口④口 |①--②|
口口口口 |③-④-|
口②③口
口①①口

口口口口
口口口口
⑤口口⑤ |⑤---|
口⑥⑥口 |⑥---|
62
④②②⑤ |①---|
①口口① |②---|
③口口③ |③---|
⑤口口④ |④-⑤-|
63
口口口口 |①---|
口①①口 |----|
口①①口 |----|
口口口口 |----|


不確定度: 0

最終更新:2013年11月11日 13:35